<?xml version="1.0" standalone="no"?>
<!DOCTYPE svg PUBLIC "-//W3C//DTD SVG 1.1//EN" "http://www.w3.org/Graphics/SVG/1.1/DTD/svg11.dtd">
<svg xmlns="http://www.w3.org/2000/svg">
<metadata>Copyright (C) 2012 by original authors @ fontello.com</metadata>
<defs>
<font id="elusive" horiz-adv-x="1000" >
<font-face font-family="elusive" font-weight="400" font-stretch="normal" units-per-em="1000" ascent="850" descent="-150" />
<missing-glyph horiz-adv-x="1000" />
<glyph glyph-name="zoom-out" unicode="&#xe880;" d="M0 403q0 186 131 316t316 131 317-131 132-316q0-141-82-256l186-186-111-111-186 186q-115-82-256-82-186 0-316 132t-131 317z m127 0q0-133 94-227t227-94 227 94 94 227-94 226-227 93-227-93-94-226z m129-64l0 127 385 0 0-127-385 0z" horiz-adv-x="1000" />
<glyph glyph-name="zoom-in" unicode="&#xe87f;" d="M0 403q0 186 131 316t316 131 317-131 132-316q0-141-82-256l186-186-111-111-186 186q-115-82-256-82-186 0-316 132t-131 317z m127 0q0-133 94-227t227-94 227 94 94 227-94 226-227 93-227-93-94-226z m129-64l0 127 129 0 0 129 127 0 0-129 129 0 0-127-129 0 0-129-127 0 0 129-129 0z" horiz-adv-x="1000" />
<glyph glyph-name="youtube" unicode="&#xe90e;" d="M0-29l0 758 1000 0 0-758-1000 0z m355 156l350 221-350 219 0-439z" horiz-adv-x="1000" />
<glyph glyph-name="wrench-circled" unicode="&#xe868;" d="M0 350q0 207 146 353t353 146 353-146 146-353-146-353-353-146-353 146-146 353z m199-201l100-100 283 283q41-16 89-6t82 44 44 81-6 90l-100-100-72 27-27 72 100 100q-25 10-55 10-68 0-115-49-35-33-45-81t6-89z m77-22q-21 21 1 42 20 20 41 0 20-21-1-42t-41 0z" horiz-adv-x="1000" />
<glyph glyph-name="wrench" unicode="&#xe867;" d="M0 21l463 463q-25 68-10 145t72 134 133 72 146-10l-162-162 45-117 115-45 164 164q25-70 9-147t-72-133-133-72-147 9l-463-463z m113-2q0-20 14-33t33-14 33 14 14 33-14 33-33 14-33-14-14-33z" horiz-adv-x="982" />
<glyph glyph-name="wordpress" unicode="&#xe90d;" d="M0 350q4 209 151 353t349 146q207-4 353-151t147-349q-4-207-151-353t-349-147q-209 4-353 151t-146 349z m35 0q2-193 140-328t325-137q193 4 328 141t137 324q-4 193-141 328t-324 137q-193-4-329-141t-136-324z m41-30q-8 108 33 200l205-553q-109 55-174 154-57 90-64 198z m68 265q62 90 157 140t198 52q168-4 287-111-47 2-70-39-4-25-6-39t7-35 15-33 18-31l18-29q33-62 8-145l-62-219-154 459q43 4 47 4 12 4 15 14t-7 16q-6 6-12 6l-94-8-70 0q-4 0-26 4t-37 2-17-14q-4-16 14-20 33-4 47-6l68-180-94-277-156 459q43 4 49 4 18 2 16 20-4 16-20 16-70-10-137-8z m234-643l129 367 133-359q-131-45-262-8z m334 39q6 20 21 62l119 346q16 49 23 111 2 27-2 49 76-162 33-312-51-172-195-256z" horiz-adv-x="1000" />
<glyph glyph-name="accessibility" unicode="&#xe8ea;" d="M0 188q2 109 62 193 64 86 162 125 43 10 57-25 6-18-1-33t-24-20q-78-33-123-96-45-68-47-145 4-107 78-180 82-74 186-74 86 2 152 47 70 49 98 121 6 16 10 31 12 41 51 31 41-12 33-49-6-23-14-41-39-104-127-164-96-61-203-61-145 4-246 100-102 102-104 238z m264 562q2 43 30 71t69 28q43-2 71-30t28-69q-2-43-31-71t-68-28q-43 2-71 30t-28 69z m47-209l2 0q-8 35 21 64 23 21 59 21 27 0 47-16 10-8 17-16t11-20 5-18 4-22 5-22l166 0q31-2 41-31 4-23-10-39t-37-14l-143 0 21-105 182 0q47-2 64-39l162-283q16-33-10-59-21-20-48-15t-38 30l-141 244q-49 2-145 1t-109-1q-59 4-68 55z" horiz-adv-x="934" />
<glyph glyph-name="website-circled" unicode="&#xe82d;" d="M0 350q0 207 146 353t353 146 353-146 146-353-146-353-353-146-353 146-146 353z m234-248l531 0 0 496-531 0 0-496z m66 64l0 367 400 0 0-367-400 0z m43 41l88 0 0 88-88 0 0-88z m0 117l312 0 0 162-312 0 0-162z m111-117l88 0 0 88-88 0 0-88z m111 0l90 0 0 88-90 0 0-88z" horiz-adv-x="1000" />
<glyph glyph-name="website" unicode="&#xe82c;" d="M0-119l0 937 1000 0 0-937-1000 0z m123 123l754 0 0 691-754 0 0-691z m82 78l0 166 166 0 0-166-166 0z m0 219l0 307 588 0 0-307-588 0z m211-219l0 166 166 0 0-166-166 0z m211 0l0 166 166 0 0-166-166 0z" horiz-adv-x="1000" />
<glyph glyph-name="warning" unicode="&#xe84f;" d="M0-150l500 1000 500-1000-1000 0z m461 180l78 0 0 82-78 0 0-82z m0 342l20-186 39 0 20 186 0 131-78 0 0-131z" horiz-adv-x="1000" />
<glyph glyph-name="w3c" unicode="&#xe90c;" d="M0 84l0 766 1000 0 0-766-500-234z m84 461l62-275q4-14 18-14l47 0q14 0 18 14l23 113 21-113q4-14 18-14l49 0q14 0 18 14l61 275q2 10-3 16t-13 6l-51 0q-14 0-16-14l-23-121-25 121q-4 14-18 14l-37 0q-14 0-16-14l-25-121-25 121q-2 14-16 14l-51 0q-20 0-16-21z m344-242q37-51 104-53 45 2 76 29t31 68q-2 43-33 68 29 27 29 62-2 45-32 68t-71 23q-64 0-100-51-8-12 2-23l27-25q14-12 25 2 18 23 41 23 20 0 23-10 6-12 0-25-8-10-45-10-20 0-20-16l0-41q2-21 20-18 45 0 49-10t4-16q0-25-27-25-29 0-47 25-12 16-25 2l-29-29q-10-10-2-21z m232 107q0-72 36-116t95-44q70 0 104 74 4 20-10 23l-37 18q-6 2-14-1t-10-9q-12-29-33-29t-35 23-14 62 14 62 35 23q21-2 33-27 8-14 23-10l37 18q18 10 10 25-33 70-104 70-59 0-95-45t-36-117z" horiz-adv-x="1000" />
<glyph glyph-name="volume-up" unicode="&#xe872;" d="M0 169l0 359 203 0 307 250 0-857-307 248-203 0z m562 33q62 62 62 150t-62 152l61 64q90-90 92-219 0-125-92-213z m102-105q105 105 105 256t-105 258l66 62q131-133 131-319t-131-321z m100-98q146 146 146 353t-146 353l62 64q82-82 128-189t46-228-46-229-128-190z" horiz-adv-x="1000" />
<glyph glyph-name="volume-off" unicode="&#xe86f;" d="M0 551l305 0 346 281 0-965-346 279-229 0z m713-283q0 4 2 6l76 76-76 76q-2 2-2 6t2 6l53 53q2 2 6 2t6-2l76-76 76 76q4 2 7 2t5-2l55-53q2-2 2-6t-2-6l-76-76 76-76q2-4 2-7t-2-5l-55-55q-2-2-5-2t-7 2l-76 78-76-78q-2-2-5-2t-7 2l-53 55q-2 2-2 6z" horiz-adv-x="1000" />
<glyph glyph-name="volume-down" unicode="&#xe870;" d="M0 141l0 418 236 0 357 291 0-1000-357 291-236 0z m656 37q74 74 74 174 0 104-74 180l72 74q104-105 107-256 0-145-107-246z" horiz-adv-x="836" />
<glyph glyph-name="vimeo" unicode="&#xe90a;" d="M0-150l0 1000 1000 0 0-1000-1000 0z m133 600q2-4 8-12t8-10q12-12 37-4 25 10 41 9t29-26q27-74 74-252 31-102 76-121 25-6 52 0t46 18q119 76 213 238 2 4 26 51t33 68 22 61 12 67-18 48q-53 41-108 26t-101-58-62-94q49 0 59-4 29-16 25-64-12-51-37-100t-59-55q-14 0-29 18-20 23-27 50t-13 71-7 55q0 2-5 31t-8 42-11 35-20 35-27 19q-66 10-156-74-37-33-74-64l0-4z" horiz-adv-x="1000" />
<glyph glyph-name="view-mode" unicode="&#xe81c;" d="M0-76l926 926 74-74-926-926z m0 410l0 234 234 0 0-234-234 0z m0 279l0 234 234 0 0-234-234 0z m275-279l0 234 234 0z m0 279l0 234 234 0 0-234-234 0z m236-762l0 131 488 0 0-131-488 0z m0 168l0 131 488 0 0-131-488 0z m31 168l145 131 312 0 0-131-457 0z" horiz-adv-x="1000" />
<glyph glyph-name="video-chat" unicode="&#xe814;" d="M0 96l0 713 1000 0 0-713-473 0-320-205 0 205-207 0z m219 201l402 0 0 125 160-125 0 332-160-123 0 123-402 0 0-332z" horiz-adv-x="1000" />
<glyph glyph-name="video-circled" unicode="&#xe811;" d="M0 350q0 207 146 353t353 146 353-146 146-353-146-353-353-146-353 146-146 353z m201-227l598 0 0 453-598 0 0-453z m74 74l0 305 449 0 0-305-449 0z m158 49l176 102-176 102 0-203z" horiz-adv-x="1000" />
<glyph glyph-name="video" unicode="&#xe810;" d="M0-29l0 758 1000 0 0-758-1000 0z m123 123l754 0 0 512-754 0 0-512z m266 82l0 340 293-170z" horiz-adv-x="1000" />
<glyph glyph-name="user" unicode="&#xe80c;" d="M0-150l0 156q0 23 58 58t159 71q100 35 137 72t37 102q0 29-26 72t-32 59q-12 35-29 135-10 53-14 94-2 21 6 50t28 60 66 52 110 21 110-21 66-52 28-60 6-50q-4-41-14-94-18-100-29-135-6-16-32-59t-26-72q0-64 37-102t137-72q217-80 217-129l0-156-1000 0z" horiz-adv-x="1000" />
<glyph glyph-name="upload" unicode="&#xe840;" d="M0 350q0 207 146 353t353 146 353-146 146-353-146-353-353-146-353 146-146 353z m109 0q0-162 114-276t276-114 276 114 114 276-114 276-276 114-276-114-114-276z m170 14l221 207 221-207-123 0 0-223-195 0 0 223-123 0z" horiz-adv-x="1000" />
<glyph glyph-name="lock-open-alt" unicode="&#xe833;" d="M0 350q0 207 146 353t353 146 353-146 146-353-146-353-353-146-353 146-146 353z m258-225l484 0 0 305-303 0 0 78q0 27 20 47t49 20q27 2 46-17t21-48l98 0q-2 66-50 116t-114 46q-70-2-115-48t-51-116l0-78-84 0 0-305z" horiz-adv-x="1000" />
<glyph glyph-name="lock-open" unicode="&#xe832;" d="M0-150l0 559 152 0 0 139q2 127 88 215 41 39 96 63t119 24q123-2 211-88 86-88 90-209l-178 0q-2 47-37 82-37 35-86 37-53-2-88-37-37-39-37-88l0-139 553 0 0-559-883 0z" horiz-adv-x="883" />
<glyph glyph-name="universal-access" unicode="&#xe8eb;" d="M0 350q0 207 146 353t353 146 353-146 146-353-146-353-353-146-353 146-146 353z m66 0q0-180 127-307t307-127 307 127 127 307-127 307-307 127-307-127-127-307z m162 2q-20 27 2 47l168 146q12 8 21 11t25 3l109 0q16 0 25-3t21-11q10-8 71-62t97-84q21-21 2-47-21-23-47-4-20 18-62 54t-64 58q0-2-3 0t-7 4-6 2q-6 0-6-14l0-58t4-67q2-21 2-25l49-271q4-41-33-49-18-4-32 7t-17 26q-39 221-39 225-6 23-10 23-4-2-6-5t-2-7-1-8l-1-4q0-2-10-59t-20-111l-10-55q-6-18-19-26t-30-7q-39 10-33 49l49 273q6 37 6 146 0 16-6 16t-16-8l-127-109q-27-20-47 4z m199 300q0 30 21 52t52 21 52-21 21-52-21-52-52-21-52 21-21 52z" horiz-adv-x="1000" />
<glyph glyph-name="twitter" unicode="&#xe908;" d="M0 26q162-20 305 88-66-2-117 39t-76 105q18-4 43-2 33 2 49 6-100 33-139 107-23 51-23 104 57-29 92-27-80 68-90 146-6 62 25 135 113-125 238-180 94-39 186-39-12 94 25 158 45 70 129 94 55 14 105-3t86-56q61 6 133 49-29-86-92-117 62 10 121 35-10-20-37-53t-68-57q2-10 2-18 4-109-43-232-80-201-242-303-160-90-383-68-141 16-229 88z" horiz-adv-x="1000" />
<glyph glyph-name="tumblr" unicode="&#xe909;" d="M0-150l0 1000 1000 0 0-1000-1000 0z m291 559l76 0 0-275q2-70 57-102 41-21 104-21 84 0 102 2 45 0 80 20l0 119q-21-14-47-23-43-16-80-6-31 8-47 20-8 8-8 12l0 256 162 0 0 113-162 0 0 168-94 0q-4-70-41-119t-102-49l0-113z" horiz-adv-x="1000" />
<glyph glyph-name="trash-circled" unicode="&#xe858;" d="M0 350q0 207 146 353t353 146 353-146 146-353-146-353-353-146-353 146-146 353z m242 178l516 0 0 88-180 0 0 47-156 0 0-47-180 0 0-88z m27-490l461 0 0 422-461 0 0-422z" horiz-adv-x="1000" />
<glyph glyph-name="trash" unicode="&#xe857;" d="M0 633l0 141 289 0 0 76 246 0 0-76 289 0 0-141-824 0z m43-783l0 676 738 0 0-676-738 0z" horiz-adv-x="824" />
<glyph glyph-name="torso" unicode="&#xe80f;" d="M0-150l0 357 338 145q-61 37-92 101t-31 134q0 104 64 184t162 80q102-4 164-83t62-181q-2-74-33-137t-86-98l334-145 0-357-883 0z" horiz-adv-x="883" />
<glyph glyph-name="tint" unicode="&#xe8cb;" d="M0 204q2 105 57 189 18 27 56 80t54 78q90 139 127 256 16 45 59 41 47 2 59-41 37-119 129-256 18-29 55-80t55-78q55-88 57-189-4-148-104-250-105-102-250-104-148 4-248 104-104 107-104 250z m154-78q2-37 27-62t61-25q37 2 62 27t25 61q0 27-14 47-18 23-27 41-25 41-33 62-2 14-14 12-12 2-16-12-8-27-29-62-6-10-16-22t-14-19q-14-20-14-47z" horiz-adv-x="705" />
<glyph glyph-name="clock-circled" unicode="&#xe875;" d="M0 350q0 207 146 353t353 146 353-146 146-353-146-353-353-146-353 146-146 353z m268 90l236-236 338 338-90 90-248-248-146 146-10-10-70-70z" horiz-adv-x="1000" />
<glyph glyph-name="clock" unicode="&#xe874;" d="M0 349q0 188 134 322t322 134 321-134 133-322-133-321-321-133-322 133-134 321z m119 0q0-140 99-238t238-99 238 99 99 238-99 238-238 99-238-99-99-238z m172-69l0 117 117 0 0 213 117 0 0-330-234 0z" horiz-adv-x="910" />
<glyph glyph-name="thumbs-up" unicode="&#xe83c;" d="M0-63l0 553q0 16 10 24t25 11l146 0q33 0 35-35l0-553q0-14-10-23t-25-12l-146 0q-14 0-23 10t-12 25z m277 27l0 500q0 21 14 35t37 16l113 0 113 252q14 31 41 31 37 2 94-61 18-25 24-56t6-48-9-63-10-56l248 0q25 0 38-17t11-44l-70-430q-12-41-53-73t-88-38l-459 0q-21 0-35 14t-16 37z" horiz-adv-x="998" />
<glyph glyph-name="thumbs-down" unicode="&#xe83d;" d="M0 212l0 553q2 33 35 33l146 0q35-2 35-33l0-553q-2-16-12-25t-23-10l-146 0q-14 2-24 12t-11 23z m277 23l0 502q2 21 16 35t33 14l459 0q35-2 70-21 55-33 70-88l70-430q2-25-13-43t-36-18l-248 0q8-59 21-117 6-90-94-158-20-14-43-6-20 6-31 29l-111 252-115 0q-21 2-35 16t-14 33z" horiz-adv-x="996" />
<glyph glyph-name="th-list" unicode="&#xe81b;" d="M0-150l0 250 250 0 0-250-250 0z m0 375l0 250 250 0 0-250-250 0z m0 375l0 250 250 0 0-250-250 0z m391-750l0 250 609 0 0-250-609 0z m0 375l0 250 609 0 0-250-609 0z m0 375l0 250 609 0 0-250-609 0z" horiz-adv-x="1000" />
<glyph glyph-name="th-large" unicode="&#xe819;" d="M0-150l0 437 437 0 0-437-437 0z m0 562l0 437 437 0 0-437-437 0z m562-562l0 437 437 0 0-437-437 0z m0 562l0 437 437 0 0-437-437 0z" horiz-adv-x="1000" />
<glyph glyph-name="th" unicode="&#xe81a;" d="M0-150l0 250 250 0 0-250-250 0z m0 375l0 250 250 0 0-250-250 0z m0 375l0 250 250 0 0-250-250 0z m375-750l0 250 250 0 0-250-250 0z m0 375l0 250 250 0 0-250-250 0z m0 375l0 250 250 0 0-250-250 0z m375-750l0 250 250 0 0-250-250 0z m0 375l0 250 250 0 0-250-250 0z m0 375l0 250 250 0 0-250-250 0z" horiz-adv-x="1000" />
<glyph glyph-name="text-width" unicode="&#xe8bb;" d="M0 24l174 174 0-117 652 0 0 117 174-174-174-174 0 115-652 0 0-115z m211 648l4 178 570 0 4-178-61 0q0 92-20 106t-137 15l0-488q0-45 11-53t75-8l0-49-316 0 0 49q64 0 75 7t11 54l0 488q-117 0-137-15t-20-106l-61 0z" horiz-adv-x="1000" />
<glyph glyph-name="text-height" unicode="&#xe8ba;" d="M0 498l6 178 570 0 4-178-61 0q0 92-20 107t-137 16l0-490q0-45 11-52t73-7l0-49-314 0 0 49q62-2 73 6t11 53l0 490q-117 0-136-16t-19-107l-62 0z m652-475l117 0 0 652-117 0 174 174 174-174-115 0 0-652 115 0-174-174z" horiz-adv-x="1000" />
<glyph glyph-name="tasks" unicode="&#xe8da;" d="M0-41l0 195 1000 0 0-195-1000 0z m0 293l0 195 1000 0 0-195-1000 0z m0 293l0 195 1000 0 0-195-1000 0z m406-244l543 0 0 100-543 0 0-100z m221 293l322 0 0 100-322 0 0-100z m119-586l203 0 0 100-203 0 0-100z" horiz-adv-x="1000" />
<glyph glyph-name="tags" unicode="&#xe837;" d="M0 460l0 240q2 27 21 46t44 19l240 0q43 0 88-27l377-414q18-23 18-48t-18-44l-279-277q-21-18-47-19t-43 19l-355 396q-45 55-45 109z m104 138q0-24 18-42 21-20 46-19t42 19q18 20 18 45t-18 43q-20 18-45 17t-43-17q-18-21-18-46z m316 165l92 0q72-4 109-45l355-396q18-21 18-48t-18-44l-279-277q-61-35-96 8l271 271q18 21 18 47t-18 45l-318 355q-23 31-70 57t-64 27z" horiz-adv-x="994" />
<glyph glyph-name="tag" unicode="&#xe836;" d="M0 483l0 287q2 31 24 54t52 22l287 0q88-6 133-55l426-473q20-27 20-58t-20-52l-334-334q-25-21-57-21t-53 21l-424 475q-55 64-55 133z m125 164q2-31 23-52t51-21q31 0 52 22t21 50q0 33-22 54t-50 21q-33-2-54-23t-21-51z" horiz-adv-x="941" />
<glyph glyph-name="stumbleupon" unicode="&#xe907;" d="M0 349q4 203 147 344t339 143q148-2 273-84l0-467q-2-25-19-41t-40-16q-25 2-42 18t-19 39l0 141q-2 121-78 148-23 10-51 10l-238 0q-68-2-111-39-47-43-47-104 0-45 20-74 31-41 90-53 10-2 37-6t41-8q25-10 25-35-2-25-29-33-20-4-72-4l-211 0q-16 64-16 121z m53-221l213 0q70 2 120 41t50 102q0 78-55 111-25 16-102 29-2 0-8 1t-8 2-8 2-9 2-7 3-6 5-5 5-4 6-1 8q2 43 70 43l146 0q41-2 61-10 29-14 29-41l0-146q4-78 53-121 49-39 117-41 72 2 117 41 51 47 51 121l0 357q80-107 98-238t-33-248q-61-135-183-216t-265-81q-139 2-255 73t-179 190z" horiz-adv-x="971" />
<glyph glyph-name="stop-circled" unicode="&#xe899;" d="M0 350q0 207 146 353t353 146 353-146 146-353-146-353-353-146-353 146-146 353z m250-250l500 0 0 500-500 0 0-500z" horiz-adv-x="1000" />
<glyph glyph-name="stop" unicode="&#xe898;" d="M0-25l0 750 750 0 0-750-750 0z" horiz-adv-x="750" />
<glyph glyph-name="step-forward" unicode="&#xe8a5;" d="M0 6l0 687 312-312 0 344 125 0 0-750-125 0 0 344z" horiz-adv-x="437" />
<glyph glyph-name="step-backward" unicode="&#xe8a4;" d="M0-25l0 750 125 0 0-344 312 312 0-687-312 312 0-344-125 0z" horiz-adv-x="437" />
<glyph glyph-name="star-empty" unicode="&#xe80b;" d="M0 471l94 0 285-2 96 270 29 90 29-92 88-271 285-6 94-2-76-55-232-166 82-273 27-92-76 57-230 168-232-162-78-53 29 90 90 270-227 174z m189-64l168-129 20-14-8-21-66-203 176 123 18 12 18-14 172-125-61 203-6 21 18 14 174 125-215 4-21 2-8 21-64 201-70-199-8-21-234 0z" horiz-adv-x="1000" />
<glyph glyph-name="star-circled" unicode="&#xe80a;" d="M0 350q0 207 146 353t353 146 353-146 146-353-146-353-353-146-353 146-146 353z m160 82l205-156-80-246 211 148 209-152-74 246 209 152-258 4-78 246-86-242-258 0z" horiz-adv-x="1000" />
<glyph glyph-name="star" unicode="&#xe809;" d="M0 471l379-2 125 359 117-363 379-8-309-221 109-365-307 225-311-215 119 359z" horiz-adv-x="1000" />
<glyph glyph-name="stackoverflow" unicode="&#xe906;" d="M0-150l0 395 64 0 0-328 492 0 0 328 66 0 0-395-623 0z m113 133l0 80 395 0 0-80-395 0z m2 146l6 80 393-27-6-80z m16 176l20 78 383-94-20-80z m62 205l41 70 340-199-41-70z m182 213l66 45 221-326-68-45z m250 117l82 10 47-391-80-10z" horiz-adv-x="754" />
<glyph glyph-name="volume" unicode="&#xe871;" d="M0 142l0 416 236 0 353 289 0-994-353 289-236 0z m652 35q72 74 72 176t-72 178l70 74q105-105 107-254 0-145-107-246z m117-119q123 119 123 295t-123 299l76 74q154-154 154-372t-154-372z" horiz-adv-x="1000" />
<glyph glyph-name="smiley-circled" unicode="&#xe8de;" d="M0 350q0 207 146 353t353 146 353-146 146-353-146-353-353-146-353 146-146 353z m238-262l523 0 0 523-523 0 0-523z m80 246l363 0q0-76-53-129t-129-53-129 53-53 129z m35 121q0 23 17 40t40 17 40-17 17-40-17-40-40-17-40 17-17 40z m176 0q0 23 17 40t40 17 40-17 17-40-17-40-40-17-40 17-17 40z" horiz-adv-x="1000" />
<glyph glyph-name="smiley" unicode="&#xe8dd;" d="M0-150l0 1000 1000 0 0-1000-1000 0z m152 471q0-145 102-246t246-102 246 102 102 246l-695 0z m66 230q0-45 31-76t76-31 77 31 32 76-32 77-77 32-76-32-31-77z m336 0q0-45 32-76t77-31 76 31 31 76-31 77-76 32-77-32-32-77z" horiz-adv-x="1000" />
<glyph glyph-name="slideshare" unicode="&#xe905;" d="M2 373q16 12 43-6l0 482 893 0 0-482q16 12 33 12t16-14q-6-18-21-37t-29-33-43-30-42-24-46-23-38-18q25-82 18-162-10-76-56-129t-120-55q-57 0-90 47-10 16-10 37l0 197q-6 0-20 5t-16 5l0-211q0-35-31-60t-68-24q-72 0-119 55t-57 131q-8 82 18 160-119 53-205 139-18 31-10 39z m94-39q8-4 24-13t26-13l699 8q29 14 39 20l0 461-789 0 0-463z m143 100q0 49 35 84t84 35 83-35 34-84-34-83-83-34-84 34-35 83z m279 0q0 49 35 84t84 35 83-35 34-84-34-83-83-34-84 34-35 83z" horiz-adv-x="987" />
<glyph glyph-name="skype" unicode="&#xe904;" d="M2 609q12 89 74 153 68 64 160 74t170-37q111 18 220-18t185-111q133-139 135-324 0-51-10-100 27-57 27-119-4-111-78-187-84-78-189-78-68 0-125 31-139-23-264 29-172 76-246 244-53 141-25 271-45 82-33 171z m211-394q4-49 34-89t71-62q166-68 309-10 57 23 91 70t34 104q2 105-105 154-47 20-90 31-16 4-56 13t-63 15q-25 8-49 24t-23 38q4 35 37 49t72 16q74 2 117-70 16-25 29-37t37-12q27 2 47 21t20 44q-4 53-42 88t-93 53q-135 33-242-8-55-20-87-62t-34-93q2-45 22-79t59-55 70-31 77-21q55-12 86-21 66-23 66-70 0-35-35-59-92-45-158-12-41 20-66 76-23 53-66 55-27-2-47-20t-21-41z" horiz-adv-x="963" />
<glyph glyph-name="signal" unicode="&#xe8a7;" d="M0-150l0 250 199 0 0-250-199 0z m268 0l0 500 199 0 0-500-199 0z m266 0l0 750 199 0 0-750-199 0z m268 0l0 1000 199 0 0-1000-199 0z" horiz-adv-x="1000" />
<glyph glyph-name="basket-circled" unicode="&#xe86a;" d="M0 350q0 207 146 353t353 146 353-146 146-353-146-353-353-146-353 146-146 353z m213 246q6-12 18-16l68-21 25-246-16-88q-2-14 7-23t22-12l377 0q12 0 21 9t9 21-9 21-21 11l-342 0 8 39 357 0q23 0 29 25l25 141q2 12-6 22t-21 13l-402 45-6 49q-2 20-20 27l-90 27q-12 4-23-2-25-16-12-41z m123-471q0-20 14-33t33-14 33 14 14 33-14 33-33 14-33-14-14-33z m275 0q0-20 14-33t33-14 33 14 14 33-14 33-33 14-33-14-14-33z" horiz-adv-x="1000" />
<glyph glyph-name="basket" unicode="&#xe869;" d="M2 791q8 20 26 29t38 4l150-49q31-10 35-43l10-84 686-76q23-6 35-22t10-38l-43-238q-8-43-49-43l-607 0-12-68 578 0q21 0 36-15t15-36q-2-21-17-36t-34-15l-641 0q-25 2-39 20t-12 41l27 148-41 418-119 39q-45 18-33 64z m217-839q0 32 23 56t56 23 56-23 23-56-23-56-56-23-56 23-23 56z m469 0q0 32 23 56t56 23 56-23 23-56-23-56-56-23-56 23-23 56z" horiz-adv-x="993" />
<glyph glyph-name="share" unicode="&#xe841;" d="M0-121q0 143 24 256t60 186 95 124 107 76 122 38 114 16 106 2l0 244 371-371-371-371 0 268q-102 0-151-1t-126-10-113-26-86-51-74-83-47-124-31-172z" horiz-adv-x="1000" />
<glyph glyph-name="export" unicode="&#xe844;" d="M0-150l0 1000 494 0 0-164-330 0 0-672 672 0 0 184 164 174 0-521-1000 0z m232 277q0 86 12 158t28 124 47 93 57 67 67 45 69 27 72 14 67 6 62 1l0 187 285-285-285-285 0 205q-107 0-159-3t-121-21-102-55-62-106-39-173z" horiz-adv-x="1000" />
<glyph glyph-name="search-circled" unicode="&#xe803;" d="M0 350q0 207 146 353t353 146 353-146 146-353-146-353-353-146-353 146-146 353z m223-193l90-90 109 109q53-27 113-27 100 0 171 71t71 171-71 171-172 71-171-71-70-171q0-70 37-129l-2 0z m178 234q0 57 39 96t95 39 95-39 39-96-39-96-95-39-95 39-39 96z" horiz-adv-x="1000" />
<glyph glyph-name="search" unicode="&#xe802;" d="M0 8l186 186 2 0q-66 105-66 229 0 178 125 303t303 125 303-125 125-303-125-303-303-125q-105 0-197 49l-193-193z m311 415q0-99 70-168t168-69 168 69 70 168-70 168-168 69-168-69-70-168z" horiz-adv-x="977" />
<glyph glyph-name="target" unicode="&#xe8a6;" d="M0 274l0 152 131 0q21 109 103 190t190 103l0 131 152 0 0-131q109-21 190-103t103-190l131 0 0-152-131 0q-21-109-103-190t-190-103l0-131-152 0 0 131q-109 21-190 103t-103 190l-131 0z m230 0q20-70 71-122t122-71l0 146 152 0 0-146q70 20 122 71t71 122l-146 0 0 152 146 0q-20 70-71 122t-122 71l0-146-152 0 0 146q-70-20-122-71t-71-122l146 0 0-152-146 0z" horiz-adv-x="1000" />
<glyph glyph-name="desktop-circled" unicode="&#xe8a9;" d="M0 350q0 207 146 353t353 146 353-146 146-353-146-353-353-146-353 146-146 353z m209-145l211 0 0-55-51 0 0-43 262 0 0 43-51 0 0 55 211 0 0 387-582 0 0-387z m70 74l0 238 441 0 0-238-441 0z" horiz-adv-x="1000" />
<glyph glyph-name="desktop" unicode="&#xe8a8;" d="M0 104l0 660 1000 0 0-660-363 0 0-96 88 0 0-72-449 0 0 72 88 0 0 96-363 0z m123 125l754 0 0 410-754 0 0-410z" horiz-adv-x="1000" />
<glyph glyph-name="rss" unicode="&#xe861;" d="M0-150l0 199q82 0 141-59t59-141l-199 0z m0 400l0 199q248 0 424-176t176-424l-199 0q0 166-117 283t-283 117z m0 400l0 199q203 0 389-79t319-213 213-319 79-389l-199 0q0 217-107 401t-292 292-401 107z" horiz-adv-x="1000" />
<glyph glyph-name="road" unicode="&#xe8c5;" d="M0-150l201 1000 250 0-8-230 113 0-8 230 250 0 201-1000-418 0-10 287-145 0-10-287-418 0z m430 373l141 0-12 340-117 0z" horiz-adv-x="1000" />
<glyph glyph-name="backward-circled" unicode="&#xe89f;" d="M0 350q0 207 146 353t353 146 353-146 146-353-146-353-353-146-353 146-146 353z m187 0l250-187 0 375z m312 0l250-187 0 375z" horiz-adv-x="1000" />
<glyph glyph-name="retweet" unicode="&#xe84b;" d="M0 413l250 250 250-250-187 0 0-187 125 0 125-125-375 0 0 312-187 0z m437 187l375 0 0-312 187 0-250-250-250 250 187 0 0 187-125 0z" horiz-adv-x="1000" />
<glyph glyph-name="resize-vertical" unicode="&#xe87c;" d="M0 104l170 0 0 492-170 0 254 254 254-254-170 0 0-492 170 0-254-254z" horiz-adv-x="508" />
<glyph glyph-name="resize-small" unicode="&#xe87b;" d="M0-3l201 201-148 146 441 0 0-441-146 148-201-201z m506 359l0 441 146-148 201 201 146-146-201-201 148-146-441 0z" horiz-adv-x="1000" />
<glyph glyph-name="resize-horizontal" unicode="&#xe87d;" d="M0 350l254 254 0-170 492 0 0 170 254-254-254-254 0 170-492 0 0-170z" horiz-adv-x="1000" />
<glyph glyph-name="resize-full" unicode="&#xe879;" d="M0-150l0 441 148-148 201 201 145-145-201-201 148-148-441 0z m506 650l201 201-148 148 441 0 0-441-148 148-201-201z" horiz-adv-x="1000" />
<glyph glyph-name="cw-circled" unicode="&#xe892;" d="M0 350q0 207 146 353t353 146 353-146 146-353-146-353-353-146-353 146-146 353z m211 0q0-119 85-204t204-85q80 0 146 39t104 105l-102 59q-21-39-62-62t-87-23q-70 0-121 51t-51 121 51 121 121 51q61 0 107-37l-76-55 258-86 0 270-84-61q-84 86-205 86-119 0-204-85t-85-204z" horiz-adv-x="1000" />
<glyph glyph-name="cw" unicode="&#xe891;" d="M0 350q0 207 146 353t353 146q209 0 355-148l145 104 0-465-445 148 131 94q-82 64-186 64-123 0-210-87t-87-210 87-210 210-87q82 0 150 40t107 108l176-102q-66-113-182-182t-252-68q-207 0-353 146t-146 353z" horiz-adv-x="1000" />
<glyph glyph-name="cancel-circled" unicode="&#xe821;" d="M0 350q0 207 146 353t353 146 353-146 146-353-146-353-353-146-353 146-146 353z m219-156l125-125 156 156 156-156 125 125-156 156 156 156-125 125-156-156-156 156-125-125 156-156z" horiz-adv-x="1000" />
<glyph glyph-name="cancel-circled2" unicode="&#xe822;" d="M0 350q0 207 146 353t353 146 353-146 146-353-146-353-353-146-353 146-146 353z m109 0q0-162 114-276t276-114 276 114 114 276-114 276-276 114-276-114-114-276z m145-137l137 137-137 137 109 109 137-137 137 137 109-109-137-137 137-137-109-109-137 137-137-137z" horiz-adv-x="1000" />
<glyph glyph-name="cancel" unicode="&#xe820;" d="M0 71l279 279-279 279 221 221 279-279 279 279 221-221-279-279 279-279-221-221-279 279-279-279z" horiz-adv-x="1000" />
<glyph glyph-name="arrows-cw" unicode="&#xe893;" d="M0-150l0 402 402 0-160-160q107-107 258-107 125 0 222 75t130 192l139 0q-35-174-173-288t-317-114q-207 0-353 146z m10 598q35 174 173 288t317 114q207 0 353-146l146 146 0-402-402 0 160 160q-107 107-258 107-125 0-222-75t-130-192l-139 0z" horiz-adv-x="1000" />
<glyph glyph-name="reddit" unicode="&#xe903;" d="M0 362q0 23 9 44t24 37 36 25 46 9q43 0 74-29 59 37 135 60t162 24l80 229 195-47q10 25 33 42t53 17q39 0 67-27t28-66-28-66-66-27-66 27-28 66l-164 39-66-186q84-4 156-26t129-58q33 29 76 29 23 0 45-9t37-25 24-37 9-44q0-31-15-57t-40-41q4-18 4-35 0-61-35-116t-97-97-144-64-176-23q-92 0-174 23t-144 64-97 97-35 116q0 10 2 20 0 10 2 18-23 16-38 40t-15 56z m86-133q0-55 32-103t88-84 132-57 161-21 160 21 132 57 89 84 32 103-32 104-89 85-132 57-160 21-161-21-132-57-88-85-32-104z m199 54q0 28 21 50t51 21 50-21 21-50-21-49-50-21-51 21-21 49z m53-165q12 10 33-8 6-6 13-10t15-7 13-5 14-4 13-3 15-3 14-2 16-1 17-1q76 4 133 35 21 20 35 8 10-18-12-35-59-45-156-45-105 2-152 45-25 20-8 35z m242 166q0 29 21 50t51 21 51-21 21-50-21-50-51-21-51 21-21 50z" horiz-adv-x="1000" />
<glyph glyph-name="record" unicode="&#xe89c;" d="M0 350q0 207 146 353t353 146 353-146 146-353-146-353-353-146-353 146-146 353z m250 0q0-104 73-177t177-73 177 73 73 177-73 177-177 73-177-73-73-177z" horiz-adv-x="1000" />
<glyph glyph-name="shuffle" unicode="&#xe894;" d="M0 44l0 123 145 0q27 0 33 3t23 22q10 12 139 195 111 160 160 209 62 64 137 64l143 0 0 154 221-221-221-219 0 162-143 0q-16 0-22-4t-28-25q-39-39-145-191-23-31-59-84t-54-78-36-45q-59-66-148-66l-145 0z m0 494l0 123 145 0q90 0 148-68 23-25 61-78-2-4-7-11t-7-11q-21-29-51-70-2-4-6-9t-6-7q-59 84-76 104-18 21-23 24t-33 3l-145 0z m430-346q43 64 61 90 4 4 8 10t6 8q57-76 82-104 21-21 28-25t22-4l143 0 0 158 221-219-221-221 0 158-143 0q-74 0-137 64-29 29-70 84z" horiz-adv-x="1000" />
<glyph glyph-name="quote-circled" unicode="&#xe843;" d="M0 350q0 207 146 353t353 146 353-146 146-353-146-353-353-146-353 146-146 353z m219-199l223 0 0 262-74 0q-4 49 26 69t89 34l-21 100q-39-4-64-8t-62-18-60-35-39-62-17-96l0-246z m299 0l223 0 0 262-74 0q-4 49 26 69t89 34l-21 100q-39-4-64-8t-62-18-60-35-39-62-17-96l0-246z" horiz-adv-x="1000" />
<glyph glyph-name="quote" unicode="&#xe842;" d="M0-62l0 437q0 70 15 129t38 97 62 67 71 45 83 27 82 15 81 7l37-176q-49-10-81-21t-65-31-48-53-11-77l131 0 0-467-395 0z m529 0l0 437q0 70 16 129t38 97 61 67 72 45 83 27 81 15 81 7l39-176q-51-10-83-21t-65-31-47-53-12-77l131 0 0-467-395 0z" horiz-adv-x="1000" />
<glyph glyph-name="help-circled" unicode="&#xe828;" d="M0 350q0 207 146 353t353 146 353-146 146-353-146-353-353-146-353 146-146 353z m316 264q-4-49 12-57l57 0q21 47 70 45 33 0 58-32t11-65q-10-23-29-56t-31-56q-20-41-21-90t21-98l70-2q-8 41 9 79t58 89 45 57q25 39 32 62t7 60q0 70-49 121-53 55-145 55-47 0-109-37t-64-74z m94-553q0-35 24-61t60-25 61 25 25 61-25 60-61 24-60-24-24-60z" horiz-adv-x="1000" />
<glyph glyph-name="help" unicode="&#xe827;" d="M0 704q2 49 85 98t147 49q121 0 191-72 66-68 66-162 0-49-10-79t-45-83q-4-8-59-75t-77-119-13-104l-94 2q-29 66-26 131t28 119q14 31 40 74t40 74q20 45-14 89t-76 44q-39 0-60-15t-34-48l-76 0q-21 12-16 78z m123-740q0 47 33 80t80 33 80-33 33-80-33-80-80-33-80 33-33 80z" horiz-adv-x="490" />
<glyph glyph-name="qrcode" unicode="&#xe8c6;" d="M0-150l0 455 455 0 0-455-455 0z m0 545l0 455 455 0 0-455-455 0z m90-455l273 0 0 273-273 0 0-273z m0 547l273 0 0 273-273 0 0-273z m92-455l0 92 92 0 0-92-92 0z m0 545l0 90 92 0 0-90-92 0z m363-727l0 455 271 0 0-92 94 0 0 92 90 0 0-273-273 0 0 90-90 0 0-271-92 0z m0 545l0 455 455 0 0-455-455 0z m92 92l273 0 0 273-273 0 0-273z m90-547l90 0 0-90-90 0 0 90z m0 637l0 90 90 0 0-90-90 0z m184-637l90 0 0-90-90 0 0 90z" horiz-adv-x="1000" />
<glyph glyph-name="print" unicode="&#xe84a;" d="M0 176l0 305 1000 0 0-305-154 0 55-266-801 0 55 266-154 0z m33 361l234 100 39 0 0 152 387 0 0-152 39 0 234-100-934 0z m131-553l672 0-78 381-516 0z" horiz-adv-x="1000" />
<glyph glyph-name="plus-circled" unicode="&#xe824;" d="M0 350q0 207 146 353t353 146 353-146 146-353-146-353-353-146-353 146-146 353z m219-80l201 0 0-201 160 0 0 201 201 0 0 160-201 0 0 201-160 0 0-201-201 0 0-160z" horiz-adv-x="1000" />
<glyph glyph-name="plus" unicode="&#xe823;" d="M0 209l0 281 359 0 0 359 281 0 0-359 359 0 0-281-359 0 0-359-281 0 0 359-359 0z" horiz-adv-x="1000" />
<glyph glyph-name="play-circled2" unicode="&#xe897;" d="M0 350q0 207 146 353t353 146 353-146 146-353-146-353-353-146-353 146-146 353z m115 0q0-158 113-271t271-113 271 113 113 271-113 271-271 113-271-113-113-271z m260-250l0 500 375-250z" horiz-adv-x="1000" />
<glyph glyph-name="play-circled" unicode="&#xe896;" d="M0 350q0 207 146 353t353 146 353-146 146-353-146-353-353-146-353 146-146 353z m375-250l375 250-375 250 0-500z" horiz-adv-x="1000" />
<glyph glyph-name="play" unicode="&#xe895;" d="M0-25l0 750 625-375z" horiz-adv-x="625" />
<glyph glyph-name="flight" unicode="&#xe8b4;" d="M0 180l80 170-80 170 100 0 113-100 180 0-125 400 100 0 225-400 258 0 37-2q39-2 76-20t37-49q0-20-17-34t-36-21-45-10-36-4-17-1l-258 0-225-400-100 0 125 400-180 0-113-100-100 0z" horiz-adv-x="1000" />
<glyph glyph-name="pinterest" unicode="&#xe902;" d="M0 350q4 213 150 355t350 145q219-4 358-149t142-351q-4-211-150-354t-350-145q-70 0-141 21 14 21 27 49 16 33 39 125 6 25 18 68 14-23 47-43 88-41 186 8 102 59 141 182 35 129-9 239t-157 159q-143 41-277-9t-187-171q-14-45-17-89t3-86 29-75 62-51q10-4 16 0 8 4 16 31t6 37q-2 4-8 14-41 66-27 140t61 124q72 64 169 70t165-53q37-43 48-104t0-116-38-104q-49-76-115-78-39 2-63 30t-15 65q4 21 23 84t21 94q-6 74-68 76-49-6-72-44t-25-87q6-57 18-78-21-88-33-141-4-14-21-84t-20-107l0-55q-139 64-219 187t-80 270z" horiz-adv-x="1000" />
<glyph glyph-name="picture" unicode="&#xe815;" d="M0-68l0 836 1000 0 0-836-1000 0z m76 78l848 0 0 680-848 0 0-680z m90 80l0 59 150 195 102-86 193 291 223-229 0-230-668 0z m0 416q0 37 24 62t62 24q33 0 58-24t24-62q0-33-24-58t-58-24q-37 0-62 24t-24 58z" horiz-adv-x="1000" />
<glyph glyph-name="picasa" unicode="&#xe901;" d="M0 350q2 141 76 259t195 181l189-170-443-398q-18 66-18 129z m35-184l207 186 0-426q-145 92-207 240z m260-268l0 236 654 0q-59-117-167-191t-237-86q-135-10-250 41z m29 914q94 31 176 31 107 0 205-45l0-330z m436-625l0 584q111-70 176-183t64-239q0-86-29-162l-211 0z" horiz-adv-x="1000" />
<glyph glyph-name="photo-circled" unicode="&#xe818;" d="M0 350q0 207 146 353t353 146 353-146 146-353-146-353-353-146-353 146-146 353z m232-254l535 0 0 508-535 0 0-508z m66 166l0 277 402 0 0-277-402 0z" horiz-adv-x="1000" />
<glyph glyph-name="photo" unicode="&#xe817;" d="M0-125l0 949 1000 0 0-949-1000 0z m123 309l754 0 0 521-754 0 0-521z" horiz-adv-x="1000" />
<glyph glyph-name="phone-circled" unicode="&#xe863;" d="M0 350q0 207 146 353t353 146 353-146 146-353-146-353-353-146-353 146-146 353z m199 162q-4-51 41-143 70-133 229-248 107-70 193-72 29 0 47 16l84 86q10 10 8 23t-16 23l-123 72q-20 12-45-6l-35-37q-6-6-18-2-12 2-24 8t-25 16-21 17-21 21-20 18q-64 61-80 119 0 4 4 10l31 31q18 18 8 43l-68 129q-12 18-27 16-10 0-20-8l-84-86q-18-16-18-45z" horiz-adv-x="1000" />
<glyph glyph-name="phone" unicode="&#xe862;" d="M0 615q0 51 27 76l139 139q45 37 76-14l113-211q18-39-14-70l-51-53q-6-6-6-14 25-98 133-195l30-30t36-33 34-26 41-25 40-14q20-6 27 2l61 61q39 29 72 12l203-121q21-14 24-37t-13-39l-141-139q-27-27-74-27-141 4-318 121-258 186-375 406-72 150-66 232z" horiz-adv-x="988" />
<glyph glyph-name="person" unicode="&#xe8e5;" d="M0 238l0 275q0 70 47 96 18 8 41 8l207 0q23 0 43-8 59-29 59-96l0-275q-4-31-30-28t-28 28l0 262q-2 10-18 8t-16-8l0-600q-4-27-25-36t-42 4-21 34l0 365q-4 18-21 15t-18-15l0-365q-2-29-24-38t-42 3-21 33l0 600q-4 10-18 8t-16-8l0-262q-4-31-30-28t-26 28z m102 505q0 40 28 68t68 28 68-28 28-68-28-68-68-28-68 28-28 68z" horiz-adv-x="396" />
<glyph glyph-name="pencil-circled" unicode="&#xe846;" d="M0 350q0 207 146 353t353 146 353-146 146-353-146-353-353-146-353 146-146 353z m174-287l219 43-176 176z m86 250l168-166 270 271-166 166z m342 316q-2-25 16-41l84-84q18-18 43-17t44 20 20 44-17 43l-84 84q-16 16-39 16-27 0-47-20-18-20-20-45z" horiz-adv-x="1000" />
<glyph glyph-name="pencil" unicode="&#xe845;" d="M0-143l68 344 273-273z m137 393l422 422 260-260-422-422z m531 494q2 39 31 68t68 31 66-25l131-131q25-25 24-65t-30-69-69-30-65 24l-131 131q-27 27-25 66z" horiz-adv-x="989" />
<glyph glyph-name="pause-circled" unicode="&#xe89b;" d="M0 350q0 207 146 353t353 146 353-146 146-353-146-353-353-146-353 146-146 353z m275-260l152 0 0 519-152 0 0-519z m297 0l152 0 0 519-152 0 0-519z" horiz-adv-x="1000" />
<glyph glyph-name="pause" unicode="&#xe89a;" d="M0-25l0 750 312 0 0-750-312 0z m437 0l0 750 312 0 0-750-312 0z" horiz-adv-x="750" />
<glyph glyph-name="path" unicode="&#xe900;" d="M0 465q4 172 131 277 135 105 334 107 209-4 336-105 62-53 95-127t34-152q-4-164-125-264-127-100-330-102l0-61q-2-57-33-104t-80-70q-33-16-72-16-47 0-94 23l0 174q41-29 76-20 33 14 33 49l0 480 170 0 0-299q59 0 111 12 80 20 125 59 59 57 59 137 0 115-96 176-88 51-209 51-127-4-211-55-45-29-69-75t-24-97q8-105 47-143l-107-115q-47 47-74 121-23 78-25 137z" horiz-adv-x="930" />
<glyph glyph-name="attach-circled" unicode="&#xe82f;" d="M0 350q0 207 146 353t353 146 353-146 146-353-146-353-353-146-353 146-146 353z m219-180q-4-53 41-98 35-35 78-35 51 2 96 45 29 31 130 132t155 153q45 49 59 94 20 82-47 148-53 53-111 53l-8 0q-62-2-125-62l-262-264 43-43 262 262q53 51 96 47 43-6 73-47t21-78q-4-6-6-13t-6-13-7-10-8-10-7-10-9-10-9-9-10-10-10-9l-122-122-136-136q-27-25-46-28t-44 17q-23 25-21 49 2 21 25 43l240 240q33 33 45 23 8-18-21-47l-221-221 43-43 221 221q74 76 23 131-61 51-133-21l-240-240q-37-37-43-80z" horiz-adv-x="1000" />
<glyph glyph-name="attach" unicode="&#xe82e;" d="M0 65q8 68 66 127l383 383q117 115 211 33 84-86-35-209l-353-352-66 70 350 350q2 0 8 6l8 8t7 9 7 10 6 10 4 11l0 10t-2 12q-20 18-74-37l-381-381q-37-35-41-68-4-39 35-78 41-33 69-28t71 46q82 80 218 215t194 195q2 2 18 17t18 18 15 16 16 18 12 17 13 20 11 20 11 25q16 57-33 123t-115 74q-68 8-152-72l-418-418-68 66 418 420q98 96 199 101t189-83q105-107 74-236-20-74-94-150-86-84-246-244l-209-209q-70-70-150-72-68 0-125 57-70 70-64 156z" horiz-adv-x="896" />
<glyph glyph-name="ok-circled" unicode="&#xe81e;" d="M0 350q0 207 146 353t353 146 353-146 146-353-146-353-353-146-353 146-146 353z m182-57l105-105 104-104 104 104 324 324-104 104-324-324-105 105z" horiz-adv-x="1000" />
<glyph glyph-name="ok-circled2" unicode="&#xe81f;" d="M0 350q0 207 146 353t353 146 353-146 146-353-146-353-353-146-353 146-146 353z m109 0q0-162 114-276t276-114 276 114 114 276-114 276-276 114-276-114-114-276z m105-51l94 92 94-94 289 291 94-94-291-289-92-94-94 94z" horiz-adv-x="1000" />
<glyph glyph-name="ok" unicode="&#xe81d;" d="M0 260l162 162 166-164 508 510 164-164-510-510-162-162-162 164z" horiz-adv-x="1000" />
<glyph glyph-name="off" unicode="&#xe8c4;" d="M0 350q0 207 146 353l102-102q-105-104-105-252t104-253 253-104 253 104 104 253-105 252l102 102q146-146 146-353t-146-353-353-146-353 146-146 353z m428-78l0 578 145 0 0-578-145 0z" horiz-adv-x="1000" />
<glyph glyph-name="network" unicode="&#xe8ac;" d="M0 348l0 4q232 20 367 115 43-20 86 2 92-92 191-123 12-29 37-47-31-76-86-135-41 29-87 14t-63-59q-131 0-250 55t-193 152q-2 6-2 21z m6 70q20 127 100 226t197 142q8-84 37-154-51-53-21-117-131-80-312-96z m14-207q88-76 199-118t225-42q-139-70-271-62-109 90-152 223z m252-285q113 16 213 72 47-25 94-4t59 70q156 33 264 121-37-92-106-161t-154-104-182-35-187 41z m98 879q88 20 180 2-29-84-92-162-41 18-55 12-33 80-33 148z m129-287q16 39 2 76 84 104 113 195 61-20 107-53 18-133 4-256-61-10-82-64-68 25-145 102z m164-379q53 62 84 145 47 6 72 41 76 6 111 12 0-6-1-15t-1-13q-96-125-266-170z m129 326q12 111 4 211 111-115 131-271-39-10-90-12-6 47-45 72z" horiz-adv-x="930" />
<glyph glyph-name="music" unicode="&#xe801;" d="M1-16q-9 57 37 104t118 57q64 10 119-18l25 652 689 53q-31-727-33-756-2-51-46-91t-108-50q-72-10-129 22t-64 89 37 104 117 58q68 10 125-21l25 465-539-55-6-131q-6-131-12-277t-8-176l0-6q-6-51-49-89t-107-48q-70-10-127 23t-65 90z" horiz-adv-x="991" />
<glyph glyph-name="move" unicode="&#xe87e;" d="M0 350l172 172 0-119 275 0 0 275-119 0 172 172 172-172-119 0 0-275 275 0 0 119 172-172-172-172 0 119-275 0 0-275 119 0-172-172-172 172 119 0 0 275-275 0 0-119z" horiz-adv-x="1000" />
<glyph glyph-name="minus-circled" unicode="&#xe826;" d="M0 350q0 207 146 353t353 146 353-146 146-353-146-353-353-146-353 146-146 353z m213-82l574 0 0 164-574 0 0-164z" horiz-adv-x="1000" />
<glyph glyph-name="minus" unicode="&#xe825;" d="M0 209l0 281 1000 0 0-281-1000 0z" horiz-adv-x="1000" />
<glyph glyph-name="mic-circled" unicode="&#xe86e;" d="M0 350q0 207 146 353t353 146 353-146 146-353-146-353-353-146-353 146-146 353z m283-143q20-18 43-31 53-35 115-47l0 21 117 0 0-21q62 12 115 47 23 14 43 31l0 184-43 0 0-162q-76-62-174-62t-174 62l0 162-43 0 0-184z m70 59q64-53 146-53t146 53l0 357q-20 16-45 27l0-72-35 0 0 88q-23 6-49 8l0-96-35 0 0 96q-25 0-49-8l0-88-35 0 0 74q-25-14-45-29l0-357z m16-240l262 0 0 43-72 0 0 61q-29-6-59-6t-59 6l0-61-72 0 0-43z" horiz-adv-x="1000" />
<glyph glyph-name="mic" unicode="&#xe86d;" d="M0 131l0 281 64 0 0-248q119-96 270-96t270 96l0 248 64 0 0-281q-31-27-64-51-82-53-178-70l0 31-184 0 0-31q-96 18-178 70-33 23-64 51z m109 90l0 549q29 25 68 45l0-113 55 0 0 135q37 12 74 14l0-148 55 0 0 148q37-4 76-14l0-135 55 0 0 111q37-18 66-43l0-549q-98-80-225-80t-225 80z m25-303l107 0 0 92q45-8 92-8t92 8l0-92 107 0 0-68-398 0 0 68z" horiz-adv-x="668" />
<glyph glyph-name="location-circled" unicode="&#xe854;" d="M0 350q0 207 146 353t353 146 353-146 146-353-146-353-353-146-353 146-146 353z m250 82q0-82 35-129l215-283 215 283q35 47 35 129 0 104-73 176t-177 72-177-72-73-176z m145-1q0 44 31 74t74 30 74-30 31-74-31-74-74-30-74 30-31 74z" horiz-adv-x="1000" />
<glyph glyph-name="location" unicode="&#xe853;" d="M0 473q0 156 110 267t267 110 267-110 110-267q0-123-53-193l-324-430-324 430q-53 70-53 193z m219 0q0-66 46-112t112-46 112 46 46 112-46 112-112 46-112-46-46-112z" horiz-adv-x="754" />
<glyph glyph-name="male" unicode="&#xe8ec;" d="M0 209q0 148 104 254t255 105q105 0 195-57l199 199-152 0 0 139 391 0 0-391-141 0 0 150-195-197q62-92 62-203 0-148-105-254t-255-105-254 105-104 254z m145 1q0-89 62-152t151-63 152 63 63 152-63 151-152 62-151-62-62-151z" horiz-adv-x="992" />
<glyph glyph-name="magnet" unicode="&#xe8d1;" d="M0 412q0 182 137 310t329 128 329-128 137-310q0-20-2-39l-10-191-293 23 8 193q2 6 2 14 0 66-50 113t-120 47-121-47-51-113q0-6 2-14l10-193-295-23-10 191q-2 20-2 39z m23-346l293 25 18-187q2-14-8-23t-23-12l-225-18q-16-2-26 7t-11 22z m574-162l18 187 295-25-18-186q-2-14-13-22t-24-7l-227 18q-14 2-22 12t-9 23z" horiz-adv-x="932" />
<glyph glyph-name="lock-circled" unicode="&#xe831;" d="M0 350q0 207 146 353t353 146 353-146 146-353-146-353-353-146-353 146-146 353z m252-271l496 0 0 314-82 0 0 59q0 33-14 66-20 45-62 74t-94 29-92-28-62-75q-16-35-14-125l-76 0 0-314z m176 314l0 59q2 31 20 50t45 21l4 0q29-2 49-21t21-49l0-59-139 0z" horiz-adv-x="1000" />
<glyph glyph-name="lock" unicode="&#xe830;" d="M0-150l0 578 139 0q-2 166 25 230 39 88 116 140t169 52q94 0 172-54t115-138q25-59 25-121l0-109 150 0 0-578-912 0z m322 578l256 0 0 111q-2 53-38 89t-91 38q-53 2-87-34t-40-95l0-109z" horiz-adv-x="912" />
<glyph glyph-name="clipboard" unicode="&#xe8d6;" d="M0-150l0 904 225 0 0-64-160 0 0-773 578 0 0 773-160 0 0 64 225 0 0-904-707 0z m129 129l0 31 31 0 0-31-31 0z m0 121l0 31 31 0 0-31-31 0z m0 121l0 31 31 0 0-31-31 0z m0 121l0 31 31 0 0-31-31 0z m0 121l0 31 31 0 0-31-31 0z m0 96l0 94 129 0 0 98q0 41 27 70t68 29 69-30 28-69q0-57-2-98l129 0 0-94-449 0z m96-582l0 33 353 0 0-33-353 0z m0 121l0 33 353 0 0-33-353 0z m0 121l0 33 353 0 0-33-353 0z m0 121l0 33 353 0 0-33-353 0z m0 121l0 33 353 0 0-33-353 0z m98 260q0-14 9-22t22-9 22 9 9 22-9 23-22 10-22-10-9-23z" horiz-adv-x="707" />
<glyph glyph-name="list" unicode="&#xe8c0;" d="M0-13l0 180 180 0 0-180-180 0z m0 273l0 180 180 0 0-180-180 0z m0 273l0 180 180 0 0-180-180 0z m266-547l0 180 734 0 0-180-734 0z m0 273l0 180 734 0 0-180-734 0z m0 273l0 180 734 0 0-180-734 0z" horiz-adv-x="1000" />
<glyph glyph-name="linkedin" unicode="&#xe8ff;" d="M0-150l0 1000 1000 0 0-1000-1000 0z m164 728q2-33 25-54t53-22l2 0q35 2 59 23t23 53q-2 33-25 54t-55 21q-35 0-59-21t-23-53z m8-568l145 0 0 434-145 0 0-434z m225 0l145 0 0 242q0 23 4 35 27 53 74 53 72-2 72-98l0-232 145 0 0 248q-2 98-47 148-47 47-119 49-53-2-86-25-21-16-43-47l0 61-145 0q2-18 2-70 0-90-2-363z" horiz-adv-x="1000" />
<glyph glyph-name="leaf" unicode="&#xe8b5;" d="M2 56q9 27 31 48t44 41 20 32q-14 29-14 39-20 127 61 231t195 153q43 18 102 20t104-4 94 4 79 43q45 49 82 49 23 0 33-20 55-119 30-240t-97-221-168-150q-182-90-352-31-14 4-43 22t-47 19q-10-6-20-19t-21-32-16-25q-14-23-37-27t-43 16q-27 25-19 53z m182 175q1-15 13-24t26-8 24 12q145 174 377 168 16-2 26 9t11 24q0 16-10 26t-25 13q-127 6-239-45t-194-146q-10-14-9-28z" horiz-adv-x="871" />
<glyph glyph-name="laptop-circled" unicode="&#xe8ab;" d="M0 350q0 207 146 353t353 146 353-146 146-353-146-353-353-146-353 146-146 353z m178-195l31-35 582 0 31 35 0 57-644 0 0-57z m64 88l516 0 0 338-516 0 0-338z m64 61l0 215 387 0 0-215-387 0z m133-162l0 51 121 0 0-51-121 0z" horiz-adv-x="1000" />
<glyph glyph-name="laptop" unicode="&#xe8aa;" d="M0 47l0 88 1000 0 0-88-51-53-898 0z m100 135l0 523 801 0 0-523-801 0z m100 96l602 0 0 334-602 0 0-334z m209-252l184 0 0 80-184 0 0-80z" horiz-adv-x="1000" />
<glyph glyph-name="key" unicode="&#xe8d8;" d="M0 350q0 113 80 193t193 80q96 0 169-58t97-147l461 0 0-117-64 0 0-219-115 0 0 219-55 0 0-150-117 0 0 150-105 0q-18-96-94-160t-176-64q-113 0-193 80t-80 193z m127 0q0-61 43-104t104-43 104 43 43 104-43 104-104 43-104-43-43-104z" horiz-adv-x="1000" />
<glyph glyph-name="italic" unicode="&#xe8b9;" d="M0-150l14 70 127 0 172 857-127 0 14 72 391 0-14-72-127 0-172-857 127 0-14-70-391 0z" horiz-adv-x="590" />
<glyph glyph-name="iphone-home" unicode="&#xe8e4;" d="M0 350q0 207 146 353t353 146 353-146 146-353-146-353-353-146-353 146-146 353z m285-174q0-16 12-27t29-14l348 0q16 0 27 12t14 29l0 348q0 16-12 27t-29 14l-348 0q-16 0-27-12t-14-29l0-348z m80 61l0 229q0 20 20 20l230 0q20 0 20-20l0-229q0-21-20-21l-230 0q-20 0-20 21z" horiz-adv-x="1000" />
<glyph glyph-name="instagram" unicode="&#xe8fe;" d="M0-150l0 674 270 0q-25-51-25-109 0-104 73-176t176-72 176 72 73 176q0 59-25 109l283 0 0-674-1000 0z m0 715l0 285 1000 0 0-285-311 0q-74 96-196 96t-196-96l-297 0z m49 45l35 0 0 191q-16-6-25-21t-10-32l0-139z m61 0l35 0 0 197-35 0 0-197z m59 0l35 0 0 197-35 0 0-197z m61 0l33 0 0 197-33 0 0-197z m45-196q0 91 64 155t155 64 155-64 64-155-64-154-155-63-155 63-64 154z m45 1q0-72 51-123t123-51 124 51 52 123-52 123-124 51-123-51-51-123z m422 254q0-23 18-41t43-18l94 0q23 0 41 18t18 41l0 80q0 23-18 41t-41 18l-94 0q-25 0-43-18t-18-41l0-80z" horiz-adv-x="1000" />
<glyph glyph-name="info-circled" unicode="&#xe829;" d="M0 350q0 207 146 353t353 146 353-146 146-353-146-353-353-146-353 146-146 353z m373 66l8-39 35 8q25 0 25-35l0-244q0-20-14-29-18-12-53-20l8-35q84 8 118 8t118-8l8 35q-35 10-53 20-10 6-12 12-2 4-2 18l0 240q0 49 16 90l-20 23q-31 0-90-14t-94-29z m35 194q0-30 20-50 21-18 57-18t57 19 21 49-21 49-57 19-57-18q-20-20-20-50z" horiz-adv-x="1000" />
<glyph glyph-name="indent-right" unicode="&#xe8c2;" d="M0-66l0 146 1000 0 0-146-1000 0z m0 229l0 146 578 0 0-146-578 0z m0 229l0 146 578 0 0-146-578 0z m0 229l0 146 1000 0 0-146-1000 0z m719-270l281 187 0-375z" horiz-adv-x="1000" />
<glyph glyph-name="indent-left" unicode="&#xe8c1;" d="M0-66l0 146 1000 0 0-146-1000 0z m0 229l0 375 281-187z m0 457l0 146 1000 0 0-146-1000 0z m422-457l0 146 578 0 0-146-578 0z m0 229l0 146 578 0 0-146-578 0z" horiz-adv-x="1000" />
<glyph glyph-name="right-hand" unicode="&#xe88f;" d="M0 39l0 348q2 25 21 44t44 19l154 0q23 18 61 59t59 57q21 18 35 41 10 21 19 77t30 79q57 23 115-4t78-82q27-76-18-170 55 0 273-2 57-4 93-38t36-89q0-53-38-88t-91-37l-107 0q-6-31-21-57 10-68-33-119-4-72-42-109t-98-39-117 8-124 24-94 15l-170 0q-27 2-46 21t-19 44z m230 0q23 0 84-15t115-25 109-13 83 26 19 91q27 14 36 47t-7 59q59 59 10 107l191 0q27 2 45 20t20 41q-2 29-20 46t-45 19l-365 0q4 23 21 66t27 73 4 66-42 58q-25 14-47 10-4-2-5-5t-1-7q-8-45-13-68t-21-56-41-54q-18-14-67-68t-87-70l-4 0 0-348z" horiz-adv-x="1000" />
<glyph glyph-name="left-hand" unicode="&#xe88e;" d="M0 377q0 55 36 89t93 38q219 2 273 2-45 94-18 170 20 55 78 82t115 4q21-23 30-79t19-77q14-23 35-41 21-16 59-57t61-59l154 0q25 0 44-19t21-44l0-348q0-25-19-44t-46-21l-170 0q-27 0-94-15t-124-24-117-8-98 39-42 109q-43 51-33 119-16 25-21 57l-107 0q-53 2-91 37t-38 88z m64 0q2-23 20-41t45-20l191 0q-49-49 10-107-16-25-7-59t36-47q-10-62 19-91t83-26 109 13 115 25 84 15l0 348-4 0q-37 16-87 70t-67 68q-25 21-41 54t-21 56-13 68q0 4-1 7t-5 5q-21 4-47-10-35-21-42-58t4-66 27-73 21-66l-365 0q-27-2-45-19t-20-46z" horiz-adv-x="1000" />
<glyph glyph-name="down-hand" unicode="&#xe88d;" d="M0 281q-2 60 8 117t24 124 15 94l0 170q2 27 21 46t44 19l348 0q25-2 44-21t19-44l0-154q18-23 59-61t57-59q18-21 41-35 21-10 77-19t79-30q23-57-4-115t-82-78q-76-27-170 18 0-55-2-273-4-57-38-93t-89-36q-53 0-88 38t-37 91l0 107q-31 6-57 21-68-10-119 33-72 4-109 42t-39 98z m59 30q-2-55 26-83t91-19q14-27 47-36t59 7q59-59 107-10l0-191q2-27 20-45t41-20q29 2 46 20t19 45l0 365q23-4 66-21t73-27 66-4 58 42q14 25 10 47-2 4-5 5t-7 1q-45 8-68 13t-56 21-54 41q-14 18-68 67t-70 87l0 4-348 0q0-23-15-84t-25-115-13-109z" horiz-adv-x="845" />
<glyph glyph-name="guidedog" unicode="&#xe8e9;" d="M5 536q-14 29 12 43 14 6 26 2t19-14q20-31 58-51t69-20l314 0q-31-156-27-297-18 0-50 6t-48 6q-27 4-20-23l45-178q-2-49-39-55-16 0-31 11t-20 22l-57 223q-2 12-13 12t-15-12l-53-221q-10-35-43-35-21 0-35 18t-10 37l64 262 4 160q-45 12-89 39t-63 64z m395 164q-12 21 8 33 21 12 33-6l111-176q12-23-6-35-23-10-35 8z m90-689l39 160q2 8-2 16 2 186 25 293 78-102 211-129-4-12-13-34t-13-32q-4-14 4-41 29-113 61-230 4-29-16-41t-43-6-29 23l-45 172q-10 18-27 19t-23-19l-41-170q-10-25-33-27t-41 14-14 33z m96 508l135 139 23 86 53-62q6-2 26-6t31-8 23-13 19-21 12-45 14-41q12-12 25-21t33-33q18-35-49-70-27 2-52 6t-42 6q-23 4-41 8-4-10-7-21t-9-23q-59 12-113 44t-82 77z" horiz-adv-x="983" />
<glyph glyph-name="group-circled" unicode="&#xe80e;" d="M0 350q0 207 146 353t353 146 353-146 146-353-146-353-353-146-353 146-146 353z m178-158q0-21 18-21l72 0 0 92q0 18 9 32t24 22l74 35q10 6 16 14-12 18-20 41t-8 49q0 16 4 31t10 29q-20 14-41 14-37-2-59-30t-21-63q2-61 43-86l-111-51q-10-6-10-20l0-88z m123-21q-2-41 23-43l350 0q12 4 17 12t5 13l0 110q0 18-14 23l-94 47-41 20q37 21 49 74 8 29 0 61-10 35-36 60t-62 26q-35-2-61-26t-35-58q-12-45 8-92 16-29 41-47l-37-18-98-45q-16-8-16-25l0-92z m307 195q8-8 20-16t21-12 25-11 23-11q16-8 24-22t9-32l0-92 74 0q18 2 18 21l0 88q0 14-10 20l-109 53q41 29 41 84 0 37-23 65t-57 28q-21 0-43-14 12-29 12-61 0-49-25-90z" horiz-adv-x="1000" />
<glyph glyph-name="group" unicode="&#xe80d;" d="M0 106l0 135q0 25 18 31l172 80q-66 39-68 131 0 57 35 104 37 41 90 43 31 0 62-20-49-125 23-236-12-12-25-20l-113-55q-49-23-53-84l0-143-113 0q-25 0-27 33z m193-59l0 168q0 27 21 37l152 70 57 27q-37 23-60 66t-22 94q0 76 46 130t110 54 109-54 45-130q0-105-78-158l61-29 146-70q23-10 23-37l0-168q-2-37-37-41l-541 0q-14 2-23 14t-10 27z m473 330q68 105 21 230 31 20 66 21 49 0 90-43 35-41 35-104 0-82-64-131l168-80q18-10 18-31l0-135q0-31-27-33l-117 0 0 143q0 57-51 84l-109 53q-16 8-29 25z" horiz-adv-x="1000" />
<glyph glyph-name="forward-circled" unicode="&#xe8a3;" d="M0 350q0 207 146 353t353 146 353-146 146-353-146-353-353-146-353 146-146 353z m250-187l250 187-250 187 0-375z m312 0l250 187-250 187 0-375z" horiz-adv-x="1000" />
<glyph glyph-name="forward" unicode="&#xe8a2;" d="M0 6l0 687 312-312 0 312 344-344-344-344 0 312z" horiz-adv-x="656" />
<glyph glyph-name="fontsize" unicode="&#xe8b7;" d="M0 19l209 686q4 12 16 12l139 0q12 0 16-12l207-682q2-6 2-8 0-16-16-16l-125 0q-12 0-16 12l-35 123-205 0-35-123q-4-12-16-12l-125 0q-20 0-16 20z m223 248l143 0-72 252z m369-111q4 84 53 129 47 41 111 41 66 0 109-35l0 31q0 74-76 74-59 0-107-51-18-14-25 4l-41 68q-4 12 4 20 37 37 84 55 57 23 130 18t114-45q51-45 51-129l0-324q0-16-16-16l-100 0q-16 0-18 16l0 10q-47-37-109-37-66 2-111 45-51 49-53 127z m133-2q0-29 18-51 29-23 67-17t56 34l0 68q-14 25-37 31-57 20-86-14-18-23-18-53z" horiz-adv-x="998" />
<glyph glyph-name="font" unicode="&#xe8b6;" d="M0-74l86 0 353 918 111 0 352-918 98 0 0-70-359 0 0 70 109 0-82 217-416 0-82-217 107 0 0-70-277 0 0 70z m279 287l363 0-182 471z" horiz-adv-x="1000" />
<glyph glyph-name="folder-circled" unicode="&#xe85e;" d="M0 350q0 207 146 353t353 146 353-146 146-353-146-353-353-146-353 146-146 353z m201-240l598 0 0 426-303 0-41 55-129 0-43-55-82 0 0-426z" horiz-adv-x="1000" />
<glyph glyph-name="folder-open" unicode="&#xe860;" d="M0-52l0 55 146 506 853 0-172-561-828 0z m0 205l0 510 139 0 68 90 217 0 68-90 336 0 0-121-725 0z" horiz-adv-x="1000" />
<glyph glyph-name="female" unicode="&#xe8ed;" d="M0 528q0 133 94 228t227 95 228-95 95-228q0-115-74-204t-186-110l0-104 137 0 0-123-137 0 0-137-123 0 0 137-139 0 0 123 139 0 0 104q-111 21-186 110t-74 204z m127 0q0-80 57-137t137-57 137 57 57 137-57 137-137 57-137-57-57-137z" horiz-adv-x="643" />
<glyph glyph-name="fast-forward" unicode="&#xe8a1;" d="M0 6l0 687 312-312 0 312 312-312 0 344 125 0 0-750-125 0 0 344-312-312 0 312z" horiz-adv-x="750" />
<glyph glyph-name="fast-backward" unicode="&#xe8a0;" d="M0-25l0 750 125 0 0-344 312 312 0-312 312 312 0-687-312 312 0-312-312 312 0-344-125 0z" horiz-adv-x="750" />
<glyph glyph-name="videocam" unicode="&#xe813;" d="M0-37l0 773 775 0 0-324 225 324 0-773-225 324 0-324-775 0z" horiz-adv-x="1000" />
<glyph glyph-name="facebook" unicode="&#xe8f6;" d="M0-150l0 1000 1000 0 0-1000-1000 0z m471 469l92 0 0-352 133 0 0 352 129 0 6 127-135 0 0 94q0 31 12 44t41 13l80 0 2 117q-59 6-88 6l-23 0q-31 0-57-10-100-39-100-154l0-109-92 0 0-127z" horiz-adv-x="1000" />
<glyph glyph-name="eye" unicode="&#xe834;" d="M0 350q6 49 64 109 78 80 176 129 129 61 260 61 137-2 260-61 104-53 176-129 64-72 64-109-6-49-64-109-78-80-176-129-129-61-260-61-137 2-260 61-104 53-176 129-64 72-64 109z m264 0q0-94 69-159t167-65 167 65 69 159-69 159-167 65-167-65-69-159z m86 1q0 60 44 102t106 42 106-42 44-102-44-103-106-43-106 43-44 103z" horiz-adv-x="1000" />
<glyph glyph-name="gauge" unicode="&#xe8dc;" d="M0 188q0 207 146 353t353 146 353-146 146-353q0-92-31-176l-137 0q43 82 43 176 0 154-109 265t-266 110-266-110-109-265q0-94 43-176l-137 0q-31 84-31 176z m250 180q0 25 19 44t44 19 44-19 19-44-19-44-44-19-44 19-19 44z m187 61q0 25 19 44t44 19 44-19 19-44-19-44-44-19-44 19-19 44z m14-416l0 49 49 246 49-246 0-49-98 0z m174 355q0 25 19 44t44 19 44-19 19-44-19-44-44-19-44 19-19 44z" horiz-adv-x="1000" />
<glyph glyph-name="css" unicode="&#xe8f1;" d="M0 57l0 773 1000 0 0-773-500-187z m109 336q0-57 34-94t97-37q119 0 121 107l-76 0q0-45-47-47-23 0-35 17t-12 42q0 49 12 66 20 25 55 12 25-10 25-45l78 0q0 53-33 80t-88 29q-57 0-95-35t-36-96z m283-41q0-88 125-90 109 0 111 88-2 57-76 72-2 0-17 3t-25 5-21 8-10 14q0 16 33 18 31 0 33-25l0-2 74 0 0 4q0 39-33 59t-78 20q-109 0-113-80 0-59 74-76 4-2 19-5t25-5 21-8 10-14q0-16-35-16-41 0-41 31l-76 0z m266 0q0-88 125-90 109 0 111 88 0 18-8 29-16 29-68 43-2 0-18 3t-25 5-20 8-12 14q2 16 35 18 33 0 31-27l76 0q0 41-32 62t-79 21q-109 0-113-80 0-59 74-76 4-2 19-5l24-5t21-8 11-14q0-20-53-16-23 6-23 31l-76 0z" horiz-adv-x="1000" />
<glyph glyph-name="credit-card" unicode="&#xe8d4;" d="M0 18l0 664 1000 0 0-664-1000 0z m62 62l875 0 0 297-875 0 0-297z m0 439l875 0 0 100-875 0 0-100z m61-361q0 14 5 21t15 8 15-8 5-21-5-21-15-8-15 8-5 21z m8 0q0-12 3-18t9-6 9 6 3 18-3 18-9 6-9-6-3-18z m43 0q0 14 5 21t15 8 15-8 5-21-5-21-15-8-15 8-5 21z m8 0q0-12 3-18t9-6 9 6 3 18-3 18-9 6-9-6-3-18z m41 0q0 14 5 21t15 8 15-8 5-21-5-21-15-8-15 8-5 21z m8 0q0-12 3-18t9-6 9 6 3 18-3 18-9 6-9-6-3-18z m43 0q0 14 5 21t15 8 15-8 5-21-5-21-15-8-15 8-5 21z m8 0q0-12 3-18t9-6 9 6 3 18-3 18-9 6-9-6-3-18z m39-10l0 6 21 0 0-6-21 0z m31 10q0 14 5 21t15 8 15-8 5-21-5-21-15-8-15 8-5 21z m8 0q0-12 3-18t9-6 9 6 3 18-3 18-9 6-9-6-3-18z m41 0q0 14 5 21t15 8 15-8 5-21-5-21-15-8-15 8-5 21z m8 0q0-12 3-18t9-6 9 6 3 18-3 18-9 6-9-6-3-18z m41 0q0 14 6 21t15 8 15-8 6-21-6-21-15-8-15 8-6 21z m8 0q0-12 4-18t10-6 9 6 3 18-3 18-9 6-10-6-4-18z m43 0q0 14 5 21t15 8 15-8 5-21-5-21-15-8-15 8-5 21z m8 0q0-12 3-18t9-6 9 6 3 18-3 18-9 6-9-6-3-18z" horiz-adv-x="1000" />
<glyph glyph-name="compass-circled" unicode="&#xe856;" d="M0 349q0 188 134 322t322 134 321-134 133-322-133-321-321-133-322 133-134 321z m184-249l21-23 324 199 199 324-23 21-324-197z" horiz-adv-x="910" />
<glyph glyph-name="compass" unicode="&#xe855;" d="M0 349q0 188 134 322t322 134 321-134 133-322-133-321-321-133-322 133-134 321z m62 1q0-162 115-277t277-115 277 115 115 277-115 277-277 115-277-115-115-277z m139-234l186 303 303 186 20-21-184-303-303-184z" horiz-adv-x="910" />
<glyph glyph-name="comment-alt" unicode="&#xe84d;" d="M0 192l0 607 853 0 0-607-404 0-273-176 0 176-176 0z m348-111l119 76 129 0 10-6 170-111 0 117 148 0 0 434-31 0 0 76 107 0 0-586-148 0 0-180-59 37-221 143-225 0z" horiz-adv-x="1000" />
<glyph glyph-name="down-open" unicode="&#xe881;" d="M0 526l148 148 352-352 352 352 148-148-352-352-148-148-148 148z" horiz-adv-x="1000" />
<glyph glyph-name="check-empty" unicode="&#xe8cd;" d="M0-150l0 1000 1000 0 0-1000-1000 0z m164 164l672 0 0 672-672 0 0-672z" horiz-adv-x="1000" />
<glyph glyph-name="check" unicode="&#xe8cc;" d="M0-150l0 1000 646 0-164-164-318 0 0-672 672 0 0 318 164 164 0-646-1000 0z m234 623l133 131 129-129 361 363 133-133-361-363-133-133z" horiz-adv-x="1000" />
<glyph glyph-name="certificate" unicode="&#xe8d9;" d="M0 219l94 139-86 146 154 66 6 168 166-27 96 139 125-113 156 64 43-162 166-29-51-160 123-115-129-107 43-164-168-20-53-160-152 74-131-107-88 145-168-20 4 170z" horiz-adv-x="992" />
<glyph glyph-name="cc" unicode="&#xe8f0;" d="M0 30l0 641 500 98 500-98 0-641-500-98z m174 316q0-70 27-117 43-72 133-72 39 0 68 14 72 31 78 125l-57 0q-16-86-88-86-27 0-47 12-55 31-55 125 0 43 10 76 25 68 90 68l18-2q59-10 68-76l57 0q-4 49-23 78l-6 6q-39 47-113 47-57 0-98-33-62-53-62-164z m346 0q0-70 27-117 43-72 133-72 37 0 68 14 70 31 78 125l-57 0q-16-86-90-86-27 0-47 12-55 31-55 125 0 43 12 76 23 68 90 68l18-2q59-10 66-76l59 0q-4 49-23 78l-6 6q-41 47-113 47-57 0-98-33-62-53-62-164z" horiz-adv-x="1000" />
<glyph glyph-name="camera" unicode="&#xe816;" d="M0-27l0 627 295 0 31 127 361 0 31-127 281 0 0-627-1000 0z m221 346q0-117 83-199t199-82 198 82 82 199-82 199-198 82-199-82-83-199z m84 0q0 82 58 141t140 59 141-59 59-141-59-140-141-58-140 58-58 140z m527 139l143 0 0 82-143 0 0-82z" horiz-adv-x="1000" />
<glyph glyph-name="block" unicode="&#xe878;" d="M0 349q0 188 134 322t322 134 321-134 133-322-133-321-321-133-322 133-134 321z m115 27q-10-126 62-226l477 477q-100 72-226 62t-215-99-99-215z m143-306q100-72 225-62t215 100 100 215-62 225z" horiz-adv-x="910" />
<glyph glyph-name="backward" unicode="&#xe89e;" d="M0 350l344 344 0-312 312 312 0-687-312 312 0-312z" horiz-adv-x="656" />
<glyph glyph-name="asterisk" unicode="&#xe8ce;" d="M0 395l57 176 352-115 0 369 184 0 0-369 352 115 57-176-352-113 217-299-148-107-217 299-217-299-148 107 217 299z" horiz-adv-x="1000" />
<glyph glyph-name="asl" unicode="&#xe8e1;" d="M1 700q-4 37 16 53t45 5 35-38l53-184q-16-29-14-64 6-29 35-203 8-53 32-82t65-29q47 0 74 37 33-39 82-37t74 41q27-37 71-41t73 27q12 16 20 31t12 37 5 33 1 40l0 38q25-10 61 23 49 45 109 78t98 8q33-23 31-59t-35-55q-61-25-104-82t-66-112-58-117-78-93q-21-18-66-18l-350 0q-84 6-105 117z m182-234q-6 45 21 65t57 8 36-48l21-209q4-41-17-63t-47-15-36 45z m154 70q2 41 32 56t62-1 36-49l8-248q0-59-28-76t-57 5-30 62z m176 4q4 43 36 55t62-7 30-52l-6-254q-6-47-34-66t-55 1-28 67z" horiz-adv-x="979" />
<glyph glyph-name="up" unicode="&#xe888;" d="M0 264l391 586 391-586-211 0 0-414-359 0 0 414-211 0z" horiz-adv-x="781" />
<glyph glyph-name="right" unicode="&#xe887;" d="M0 170l0 359 414 0 0 211 586-391-586-391 0 211-414 0z" horiz-adv-x="1000" />
<glyph glyph-name="heart-circled" unicode="&#xe807;" d="M0 350q0 207 146 353t353 146 353-146 146-353-146-353-353-146-353 146-146 353z m242 76q-4-61 21-111 47-86 189-195 2-2 13-11t19-14 16-5q27 2 119 86 57 49 94 100 70 96 37 203-20 41-57 63t-82 22q-31 0-61-12-29-16-51-43-39 49-104 54t-113-40q-37-37-41-98z" horiz-adv-x="1000" />
<glyph glyph-name="heart" unicode="&#xe806;" d="M1 532q7 110 75 183 94 80 212 70t190-98q37 49 92 78 113 43 217 4t150-141q29-105 10-199t-78-174q-68-94-174-184-53-49-124-104t-93-57q-14 2-28 12t-35 25-24 20q-264 199-348 357-49 96-42 206z" horiz-adv-x="955" />
<glyph glyph-name="hearing-impaired" unicode="&#xe8e3;" d="M0-62q0 22 16 38l248 250q18 16 40 16t38-16q16-18 16-41t-16-39l-248-250q-41-35-78 0-16 20-16 42z m125 478q4 131 90 219 94 90 219 92 129-4 217-92 90-94 90-219 0-51-11-83t-36-75q-10-23-41-61t-41-53q-6-18-7-39t1-48 2-42q-2-90-55-133-53-29-113-29-21 2-35 16t-15 33 13 35q10 10 21 14t26 4 23 4q25 8 27 16 6 20 6 59 2 10 0 60t4 58q10 41 29 68 6 6 16 18t16 18l31 47q6 8 15 24t13 22q12 31 12 68-2 90-61 148-64 61-146 61-88-2-146-61-61-64-62-148 0-21-14-36t-35-15q-21 2-36 17t-15 34z m154-8q2 66 45 109 47 45 109 47 64-4 107-47 45-47 47-109-2-20-14-31t-29-12q-41 4-41 43-2 29-22 50t-48 21q-29-2-50-22t-21-48q-2-20-14-31t-29-12q-41 4-41 43z m434 249q0 22 18 38l135 137q20 16 41 16t37-16q18-18 17-40t-17-38l-135-137q-41-37-78 0-18 18-18 40z" horiz-adv-x="960" />
<glyph glyph-name="headphones" unicode="&#xe873;" d="M0 69l0 250q0 207 146 353t353 146 353-146 146-353l0-250q-4-41-35-54t-61 5-29 49l0 250q0 156-109 266t-266 109-266-109-109-266l0-250q-4-41-35-54t-61 5-29 49z m187-156l0 312q0 14 9 22t22 9l62 0q14 0 22-9t9-22l0-312q0-14-9-22t-22-9l-62 0q-14 0-22 9t-9 22z m500 0l0 312q0 14 9 22t22 9l62 0q14 0 22-9t9-22l0-312q0-14-9-22t-22-9l-62 0q-14 0-22 9t-9 22z" horiz-adv-x="1000" />
<glyph glyph-name="hdd" unicode="&#xe8d7;" d="M0 239l199 537 602 0 199-537-80-314-840 0z m78-51l55-213 734 0 55 213-844 0z m654-106q0 17 12 28t28 12 28-12 12-28-12-28-28-12-28 12-12 28z" horiz-adv-x="1000" />
<glyph glyph-name="up-hand" unicode="&#xe890;" d="M0 419q2 60 39 98t109 42q51 43 119 33 25 16 57 21l0 107q2 53 37 91t88 38q55 0 89-36t38-93q2-219 2-273 94 45 170 18 55-20 82-78t4-115q-23-21-79-30t-77-19q-23-14-41-35-16-21-57-59t-59-61l0-154q0-25-19-44t-44-21l-348 0q-25 0-44 19t-21 46l0 170q0 27-15 94t-24 124-8 117z m59-30q2-55 13-109t25-115 15-84l348 0 0 4q16 37 70 87t68 67q21 25 54 41t56 21 68 13q4 0 7 1t5 5q4 21-10 47-21 35-58 42t-66-4-73-27-66-21l0 365q-2 27-19 45t-46 20q-23-2-41-20t-20-45l0-191q-49 49-107-10-25 16-59 7t-47-36q-62 10-91-19t-26-83z" horiz-adv-x="845" />
<glyph glyph-name="github" unicode="&#xe8fb;" d="M0 350q0 207 146 353t353 146 353-146 146-353-146-353-353-146-353 146-146 353z m55 0q0-184 131-314t314-131 314 131 131 314-131 314-314 131-314-131-131-314z m141-107q-4 4 0 8 8 8 20 6t14-4q14-6 30-26t26-28q47-39 96-6 4 14 13 23t17 14 27 12q-64 6-104 22t-63 42q-31 35-38 92t9 104q12 29 33 53-16 49 6 111 62-4 113-43 98 25 203 2 14 10 42 24t71 17q8-21 11-51t-3-55q45-47 47-125 0-62-21-104t-76-68q-37-18-98-21 27-14 40-28t17-46l0-62t2-60q6-10 14-17t14-10 4-9-16-6q-33 0-53 23-6 10-6 23l0 94q0 16-8 22t-16 9l0-123q0-33 8-43t10-20q2-2-3-3t-17 3q-25 6-35 26t-10 44l0 121-25 0 0-121q0-23-10-45-14-27-51-29-6 2-6 4 2 2 12 20 2 4 5 16t3 27l0 123q-8-2-15-9t-7-22l0-94q0-14-6-23-18-23-53-23-14 0-16 6-2 4 1 7t9 7 8 6q8 6 12 16 6 8 3 41t-1 43q-51-18-104 18-16 16-31 45-12 21-47 51z" horiz-adv-x="1000" />
<glyph glyph-name="gift" unicode="&#xe8cf;" d="M0 289l0 250 357 0-158 127 189 125 70-213 121 271 189-187-193-123 326 0 0-250-62 0 0-439-777 0 0 439-62 0z m62 62l326 0 0 125-326 0 0-125z m62-439l264 0 0 396-264 0 0-396z m154 750l139-111-55 166z m215-121l201 127-100 100z m20-629l264 0 0 396-264 0 0-396z m0 439l326 0 0 125-326 0 0-125z" horiz-adv-x="902" />
<glyph glyph-name="resize-full-alt" unicode="&#xe87a;" d="M0-150l0 342 119-119 277 277-275 275-121-121 0 346 342 0-119-119 277-277 275 275-121 121 346 0 0-342-119 119-277-277 275-275 121 121 0-346-342 0 119 119-277 277-275-275 121-121-346 0z" horiz-adv-x="1000" />
<glyph glyph-name="friendfeed-rect" unicode="&#xe8fa;" d="M0-150l0 1000 1000 0 0-1000-1000 0z m150 582q-2-41 7-66t20-33 28-14l2-262q0-2 2-16t3-17 6-13 11-14 19-9 30-7l105-2q57-8 78 76 8-70 62-72l123 0q2 2 10 4t11 3 10 3 10 5 8 7 7 10 4 13 4 17l2 273 31-2q27 4 43 13t29 38l0 82q-2 12-5 19t-6 9-7 5-6 5q18 4 25 7t19 19 15 43l-2 66q2 59-80 82-68 10-94 10-61 0-109-27-80 29-150 23-191-18-205-187-27-2-43-20t-16-70z m70 33l61-4-2 23 2 18 0 19t2 20 4 21 7 19 10 20 14 16 20 15 25 10 32 7q8 0 20 1t16 1q31 0 90-18l2-80q-53 20-66 18-25 0-40-9t-18-19-7-27l0-57 143-2 0 38t1 41 7 35 17 34 31 22 52 15q78 12 141-16l-2-84q-23 20-72 25-23 2-37-3t-18-16-7-26-2-31 1-31l102 0 0-74-102 0 0-338-111 2 0 336-146-4 0-332-113 0 4 332-55 0z" horiz-adv-x="1000" />
<glyph glyph-name="friendfeed" unicode="&#xe8f9;" d="M0 467q2 51 15 78t27 34 40 9q18 230 275 254 96 8 205-31 66 35 148 35 33 0 125-14 61-16 86-41t23-68l4-90q-4-29-12-48t-22-27-21-12-26-7q2-2 9-5t10-6 7-13 6-25l0-111q-10-27-27-43t-31-20-37-8l-43 4-4-369q0-14-3-23t-6-18-10-14-11-9-14-7-13-5-15-4-14-3l-166 0q-74 2-84 96-29-111-107-102l-143 2q-20 2-35 6t-24 12-16 13-10 17-4 17-3 19-2 18l-2 355q-25 8-40 19t-26 45-10 91z m98 43l2-113 74 0-6-449 152 0 0 449 199 4 0-453 152-4-2 457 137 0 0 102-137 0q2 21 0 43t1 42 10 35 25 22 48 4q68-10 98-33l2 113q-82 35-189 21-41-6-69-21t-42-31-22-46-10-48-1-56l0-50-191 2 0 76q2 18 5 28t11 23 25 18 45 5q18 2 88-23l-2 107q-78 25-119 25-6 0-22-2t-28 0q-23-4-43-10t-33-13-25-21-20-21-14-26-9-25-6-28-3-26-1-27l-1-22 2-31z" horiz-adv-x="949" />
<glyph glyph-name="foursquare" unicode="&#xe8f8;" d="M0-150l0 1000 842 0-229-312-68 66q-35 31-66 0l-18-16q-4 6-9 13t-11 13q-64 70-152 72-76-2-131-49-62-59-70-139-4-86 47-146 61-64 139-70l205-203q35-31 66 0l230 230q31 33 0 64l225 189 0-713-1000 0z m127 633q0 66 47 114t114 48 114-48 47-114q0-31-12-61l0-4q25-35 41-55 16-21 18-23 4-6 12-6t12 8l371 508 109 0 0-234-482-408q-4-2-10-2l-2 0q-4 0-8 2l-152 125-2 0q-27-10-57-10-66 0-113 47t-47 113z" horiz-adv-x="1000" />
<glyph glyph-name="doc-new-circled" unicode="&#xe85c;" d="M0 350q0 207 146 353t353 146 353-146 146-353-146-353-353-146-353 146-146 353z m264-271l295 0 0 53-244 0 0 391 98 0 0 92 215 0 0-152 53 0 0 203-305 0-111-105 0-480z m219 123l123 0 0-123 94 0 0 123 121 0 0 94-121 0 0 121-94 0 0-121-123 0 0-94z" horiz-adv-x="1000" />
<glyph glyph-name="doc-new" unicode="&#xe85b;" d="M0-150l0 818 187 182 519 0 0-348-86 0 0 260-369 0 0-156-166 0 0-668 418 0 0-88-504 0z m373 207l0 162 209 0 0 207 160 0 0-207 207 0 0-162-207 0 0-207-160 0 0 207-209 0z" horiz-adv-x="949" />
<glyph glyph-name="edit-circled" unicode="&#xe848;" d="M0 350q0 207 146 353t353 146 353-146 146-353-146-353-353-146-353 146-146 353z m262-316l447 0 0 201-55-55 0-92-338 0 0 424 105 0 0 100 232 0 0-145-166-164-49-152 152 49 240 242-102 102-21-21 0 145-328 0-119-115 0-518z m229 168l25 74 51-51z" horiz-adv-x="1000" />
<glyph glyph-name="edit" unicode="&#xe847;" d="M0-150l0 818 187 182 521 0 0-227 31 31 162-160-381-381-238-78 76 238 262 262 0 227-369 0 0-156-164 0 0-668 533 0 0 143 88 88 0-318-709 0z m361 264l119 39-80 82z" horiz-adv-x="902" />
<glyph glyph-name="doc-circled" unicode="&#xe85a;" d="M0 350q0 207 146 353t353 146 353-146 146-353-146-353-353-146-353 146-146 353z m316-260l367 0 0 519-191 0 0-170-176 0 0-350z m0 393l131 0 0 127-33 0-98-96 0-31z" horiz-adv-x="1000" />
<glyph glyph-name="doc" unicode="&#xe859;" d="M0-150l0 674 338 0 0 326 371 0 0-1000-709 0z m0 756l0 62 189 182 64 0 0-244-254 0z" horiz-adv-x="709" />
<glyph glyph-name="dribbble" unicode="&#xe8f5;" d="M0 350q0 207 146 353t353 146 353-146 146-353-146-353-353-146-353 146-146 353z m72 0q0-164 109-287 53 100 145 166t220 123l-18 35-18 35q-207-59-439-61l0-12z m10 86q195 2 395 53-37 66-158 248-92-43-154-122t-82-179z m156-424q115-90 262-90 88 0 168 33-33 174-92 324-219-72-338-268z m160 754q90-119 162-252 150 61 223 156-121 107-283 107-51 0-102-12z m193-314q4-10 13-27t15-31 12-25q146 16 297-16-2 152-96 268-88-107-240-168z m62-152q39-100 84-305 154 105 184 287-92 25-184 25-45-2-84-8z" horiz-adv-x="1000" />
<glyph glyph-name="download-alt" unicode="&#xe83f;" d="M0-150l0 135 1000 0 0-135-1000 0z m88 586l229 0 0 414 369 0 0-414 229 0-414-385z" horiz-adv-x="1000" />
<glyph glyph-name="download" unicode="&#xe83e;" d="M0 350q0 207 146 353t353 146 353-146 146-353-146-353-353-146-353 146-146 353z m109 0q0-162 114-276t276-114 276 114 114 276-114 276-276 114-276-114-114-276z m170-14l123 0 0 223 195 0 0-223 123 0-221-207z" horiz-adv-x="1000" />
<glyph glyph-name="digg" unicode="&#xe8f4;" d="M0 346l0 250 62 0 0 61 64 0 0 64 184 0 0-64-184 0 0-61-64 0 0-250 311 0 0 250-62 0 0 61 62 0 0-61 127 0 0 187 373 0 0-187 127 0 0-314-64 0 0-365-498 0 0 365-187 0 0-121 61 0 0-62-184 0 0 62 59 0 0 121-123 0 0 64-62 0z m62-430l0 182 64 0 0-119 184 0 0 119 62 0 0-182-311 0z m375 430l62 0 0-367 187 0 0 182 62 0 0-182 121 0 0 367 64 0 0 191-62 0 0-125-373 0 0 125-62 0 0-191z m127 129l244 0 0 246-244 0 0-246z" horiz-adv-x="1000" />
<glyph glyph-name="deviantart" unicode="&#xe8f3;" d="M0 143q2 49 19 94t53 92 111 81 179 48l2-43q-94-14-139-64t-64-133l207 0-6 340 113 0 0-84q248 4 387-79t135-251l-471 0 2 230q62 4 105-8l0-145 211-2q-12 49-34 87t-51 60-63 36-72 19-75 7-73-1l0-283-475 0z" horiz-adv-x="996" />
<glyph glyph-name="delicious" unicode="&#xe8f2;" d="M0 350l0 500 500 0 0-500 500 0 0-500-500 0 0 500-500 0z" horiz-adv-x="1000" />
<glyph glyph-name="left-circled" unicode="&#xe88a;" d="M0 350q0 207 146 353t353 146 353-146 146-353-146-353-353-146-353 146-146 353z m178 0l377-252 0 135 268 0 0 234-268 0 0 135z" horiz-adv-x="1000" />
<glyph glyph-name="down-circled" unicode="&#xe889;" d="M0 350q0 207 146 353t353 146 353-146 146-353-146-353-353-146-353 146-146 353z m248 55l252-377 252 377-135 0 0 268-234 0 0-268-135 0z" horiz-adv-x="1000" />
<glyph glyph-name="child" unicode="&#xe8e7;" d="M0-134l0 346q-2 92 45 143t129 53l314 0q90 0 130-56t42-140l0-346q-2-16-14-16l-90 0q-16 2-16 16l0 309q-4 27-25 24t-23-24l0-309q0-16-14-16l-293 0q-14 0-14 16l0 309q-4 27-25 24t-23-24l0-309q0-16-14-16l-94 0q-14 2-16 16z m129 778q0 85 61 145t145 61 145-61 61-145-61-145-145-60-145 60-61 145z m88-34q0-47 34-81t82-34 82 34 34 81l-232 0z" horiz-adv-x="660" />
<glyph glyph-name="up-open" unicode="&#xe884;" d="M0 174l352 352 148 148 148-148 352-352-148-148-352 352-352-352z" horiz-adv-x="1000" />
<glyph glyph-name="right-open" unicode="&#xe883;" d="M0-2l352 352-352 352 148 148 352-352 148-148-148-148-352-352z" horiz-adv-x="648" />
<glyph glyph-name="left-open" unicode="&#xe882;" d="M0 350l148 148 352 352 148-148-352-352 352-352-148-148-352 352z" horiz-adv-x="648" />
<glyph glyph-name="bold" unicode="&#xe8b8;" d="M0-60l125 0 0 820-125 0 0 80 582 0q180 0 270-61t90-182q0-88-62-139t-184-64q146-14 226-79t79-173q0-145-111-215-109-68-344-68l-545 0 0 80z m379 0l94 0q125 0 186 50t61 153q0 105-62 157t-185 52l-94 0 0-412z m0 492l86 0q113 0 168 39 55 43 55 127 0 86-55 125-53 37-168 37l-86 0 0-328z" horiz-adv-x="1000" />
<glyph glyph-name="blogger" unicode="&#xe8ef;" d="M0-150l0 1000 1000 0 0-1000-1000 0z m187 377q0-195 219-191l234 0q160 23 174 189l0 88q-4 59-39 85t-84 28q10 35 2 94-6 61-47 101t-111 46l-191 0q-64-10-107-48t-49-99l0-293z m97-29q-17 29 0 59t56 35l285 0q41-6 58-35t1-59-55-35l-285 0q-43 6-60 35z m35 265q-15 26 1 53t55 32l156 0q41-4 56-30t-1-53-55-34l-156 0q-41 6-56 32z" horiz-adv-x="1000" />
<glyph glyph-name="blind" unicode="&#xe8e8;" d="M5-94q-13 23 5 51l129 166 51 184 0 150-27-37-10-107q-4-25-24-33t-37 5-15 36l14 115q0 10 6 18l104 141q20 31 57 35t64-21l113-143 111-23q21-4 29-29t-21-37l355-488q6-10-4-15t-16 3l-381 502-104 20q-14 4-21 14l-43 55 0-158 111-127q6-6 8-18l55-244q4-27-18-44t-48-10-34 36l-49 232-92 104-41-145q-6-14-8-18l-135-174q-21-20-47-19t-38 24z m179 835q0 40 28 68t68 28 68-28 28-68-28-68-68-28-68 28-28 68z" horiz-adv-x="911" />
<glyph glyph-name="bell" unicode="&#xe84e;" d="M0 10l0 45 197 170 0 266q0 107 67 190t171 104l0 62 131 0 0-62q102-21 170-104t68-190l0-266 195-170 0-45-1000 0z m428-87q0 30 21 52t52 21 52-21 21-52-21-51-52-21-52 21-21 51z" horiz-adv-x="1000" />
<glyph glyph-name="behance" unicode="&#xe8ee;" d="M0-150l0 1000 1000 0 0-1000-1000 0z m156 158l256 0q49 2 80 31 31 33 31 84 0 47-21 74-18 23-51 31l0 4q29 10 45 29 20 27 20 70-2 45-31 74-31 29-74 29l-254 0 0-428z m121 100l0 74 94 0q14-2 20-10 10-10 10-23l0-8q0-14-10-23-8-10-20-10l-94 0z m0 162l0 72 86 0q12 0 20-10t8-23l0-6q0-14-8-23t-20-10l-86 0z m250-98q0-43 12-76 12-31 34-53t54-32 72-11q78 2 117 35 41 33 41 92l-107 0q0-10-4-18-10-29-51-29-31 0-45 19t-14 54l221 0q0 62-12 98-10 31-31 53t-53 31-70 10q-37 0-67-11t-52-32-33-53-12-76z m74 193l189 0 0 70-189 0 0-70z m37-154q2 25 16 40t41 15q23 0 37-15t14-40l-107 0z" horiz-adv-x="1000" />
<glyph glyph-name="barcode" unicode="&#xe8c7;" d="M0-82l0 863 84 0 0-863-84 0z m123 0l0 863 20 0 0-863-20 0z m70 0l0 863 62 0 0-863-62 0z m92 0l0 863 27 0 0-863-27 0z m104 0l0 863 41 0 0-863-41 0z m57 0l0 863 18 0 0-863-18 0z m61 0l0 863 20 0 0-863-20 0z m45 0l0 863 82 0 0-863-82 0z m111 0l0 863 43 0 0-863-43 0z m102 0l0 863 10 0 0-863-10 0z m25 0l0 863 27 0 0-863-27 0z m68 0l0 863 20 0 0-863-20 0z m61 0l0 863 82 0 0-863-82 0z" horiz-adv-x="1000" />
<glyph glyph-name="left" unicode="&#xe886;" d="M0 350l586 391 0-211 414 0 0-359-414 0 0-211z" horiz-adv-x="1000" />
<glyph glyph-name="down" unicode="&#xe885;" d="M0 436l211 0 0 414 359 0 0-414 211 0-391-586z" horiz-adv-x="781" />
<glyph glyph-name="align-right" unicode="&#xe8be;" d="M0-89l0 156 1000 0 0-156-1000 0z m211 482l0 156 789 0 0-156-789 0z m180-242l0 156 609 0 0-156-609 0z m94 482l0 156 516 0 0-156-516 0z" horiz-adv-x="1000" />
<glyph glyph-name="align-left" unicode="&#xe8bc;" d="M0-89l0 156 1000 0 0-156-1000 0z m0 240l0 156 609 0 0-156-609 0z m0 242l0 156 789 0 0-156-789 0z m0 240l0 156 516 0 0-156-516 0z" horiz-adv-x="1000" />
<glyph glyph-name="align-justify" unicode="&#xe8bf;" d="M0-89l0 156 1000 0 0-156-1000 0z m0 240l0 156 1000 0 0-156-1000 0z m0 242l0 156 1000 0 0-156-1000 0z m0 240l0 156 1000 0 0-156-1000 0z" horiz-adv-x="1000" />
<glyph glyph-name="align-center" unicode="&#xe8bd;" d="M0-89l0 156 1000 0 0-156-1000 0z m105 482l0 156 789 0 0-156-789 0z m90-242l0 156 609 0 0-156-609 0z m47 482l0 156 516 0 0-156-516 0z" horiz-adv-x="1000" />
<glyph glyph-name="adult" unicode="&#xe8e6;" d="M0-132l0 289q0 104 60 178t157 74l330 0q102-2 158-76t57-176l0-289q0-18-18-18l-105 0q-16 0-16 18l0 252q-6 27-27 24t-21-24l0-252q-2-18-20-18l-352 0q-18 0-18 18l0 252q-4 27-25 24t-23-24l0-252q0-18-18-18l-102 0q-18 0-18 18z m186 783q0 82 60 141t140 59q86-4 143-61t59-139q-2-84-61-143t-141-59q-84 2-142 61t-58 141z" horiz-adv-x="762" />
<glyph glyph-name="adjust" unicode="&#xe8ca;" d="M0 350q0 207 146 353t353 146 353-146 146-353-146-353-353-146-353 146-146 353z m146 0q0-146 104-250t250-104l0 707q-146 0-250-104t-104-250z" horiz-adv-x="1000" />
<glyph glyph-name="address-book-alt" unicode="&#xe8e0;" d="M0 350q0 207 146 353t353 146 353-146 146-353-146-353-353-146-353 146-146 353z m219-281l562 0 0 100-62 0 0 55 62 0 0 100-62 0 0 55 62 0 0 100-62 0 0 55 62 0 0 100-562 0 0-562z m109 160l0 88 2 0 104 62q-45 21-45 72 0 33 23 57t58 23 58-23 23-57q0-51-45-72l104-62 2 0 0-88-283 0z" horiz-adv-x="1000" />
<glyph glyph-name="address-book" unicode="&#xe8df;" d="M0-150l0 1000 1000 0 0-178-109 0 0-96 109 0 0-178-109 0 0-98 109 0 0-178-109 0 0-96 109 0 0-178-1000 0z m193 285l504 0 0 154-187 111q37 20 59 54t21 77q0 59-42 102t-103 43-103-43-42-102q0-43 22-77t58-54l-187-111 0-154z" horiz-adv-x="1000" />
<glyph glyph-name="lightbulb" unicode="&#xe876;" d="M1 309q-2 12 7 21t22 12l90 16q14 2 25-5t14-20-7-23-24-13l-88-14q-14-2-25 5t-14 21z m2 251q-6 13 0 24t19 16 26-4l82-35q14-6 20-18t0-23-19-16-26 0l-82 39q-14 4-20 17z m160 207q2 13 14 21 10 6 22 2t21-16l49-76q8-12 6-25t-12-20-22-3-21 15l-51 76q-8 14-6 26z m57-241q18 39 49 66t75 41 95 14l4 0q51 0 94-14t75-41 50-66q43-104-16-227-21-43-47-92-14-25-24-73t-17-62q-4-12-16-14l-203 0q-12 2-18 14-29 111-39 135-25 49-47 92-59 131-16 227z m100-623q0 8 5 13t13 5l209 0q6 0 11-5t5-13l0-35q0-8-5-13t-11-5l-209 0q-18 0-18 18l0 35z m0 68l0 35q0 18 18 18l209 0q6 0 11-5t5-13l0-35q0-8-5-13t-11-5l-209 0q-8 0-13 5t-5 13z m94 754l0 90q0 16 8 25t21 10q12 0 21-10t9-25l0-90q0-14-9-23t-21-10q-14 0-21 10t-8 23z m193-53q-2 14 6 25l49 76q10 12 21 16t23-2q10-8 12-21t-6-26l-49-76q-10-12-21-15t-22 3-13 20z m117-339q2 13 13 20t24 5l90-16q14-2 22-12t7-21q-2-14-13-21t-26-5l-90 14q-14 2-21 13t-6 23z m9 187q-5 12 1 23t18 18l84 35q12 8 24 4t19-16 0-24-20-17l-82-39q-14-4-26 0t-18 16z" horiz-adv-x="881" />
<glyph glyph-name="home-circled" unicode="&#xe82b;" d="M0 350q0 207 146 353t353 146 353-146 146-353-146-353-353-146-353 146-146 353z m256-270l168 0 0 211 152 0 0-211 168 0 0 350-244 189-244-189 0-350z" horiz-adv-x="1000" />
<glyph glyph-name="home" unicode="&#xe82a;" d="M0-150l0 648 453 352 453-352 0-648-312 0 0 391-281 0 0-391-312 0z" horiz-adv-x="906" />
<glyph glyph-name="heart-empty" unicode="&#xe808;" d="M1 521q7 115 79 191l2 0 2 2q88 76 199 76t191-70q31 27 66 45l2 2 2 0q57 23 117 23 88 2 161-44t110-124l0-2 2-4q29-105 10-201t-80-176q-62-88-162-172 0-2-2-2-49-45-107-90-33-25-59-41-33-23-55-23l-6-2-6 2q-27 4-59 29-10 6-21 17t-16 13l-2 0q-246 187-328 340l0 2q-49 94-42 209z m85-10q-6-86 33-162 74-135 303-311l2 0q6-6 19-16t19-14q8-6 16-10 8 2 14 6 21 14 51 37 59 43 105 88 94 80 150 160 107 143 59 299-27 57-78 88t-113 29q-43 0-86-18-39-21-68-57l-31-43-35 43q-53 64-142 72t-161-53q-49-55-55-141z" horiz-adv-x="953" />
<glyph glyph-name="globe" unicode="&#xe8b0;" d="M0 350q0 207 146 353t353 146 353-146 146-353-146-353-353-146-353 146-146 353z m118-39q5-55 26-107 29-72 84-127t125-84q2 18 6 67t8 77q-4 16-22 51t-21 57q0 20 1 29t1 16q-4 2-10 8l-8 8q-8 8-12 10-12 4-34 12t-33 12-28 12-30 18-26 22-23 28q-8-53-3-107z m142 340q18 2 35 0 18-8 38-31t34-31q4-4 12-4 4-10 23-13t23-7q23-14 37-33-23-33-37-39 0-2 2-2 4-8-4-12-6-2-23-6t-23-11-10-24q0-4-4-8 4-27 2-49t-14-23q-6 0-12 2-8 2-19 8t-24 18q0-6 4-15t4-13l6 0q8 2 12-3t0-9l-2-6-2-2 8-4q10-8 19-8t22 2q20 2 31 2t26-9 22-15 21-18 23-18q4-2 21-13t26-20 9-21q-2-70-25-96-8-8-22-19t-23-21-15-23q-6-12-6-27-6-12-16-33t-16-29q100-20 194 12t161 105q51 55 76 121t27 137l-37-21q-23 2-23-8l16-6q4-2 4-4 4-10-4-21-6-12-29-35-2-25-4-33-4-10-10-21l0-14q-2-8-9-22t-9-24q-4-27-23-51-29-27-49-23-8 2-14 10-4 14-14 37t-12 29q-4 10-4 20t2 23 2 20q0 10-7 24t-7 21q-2 6 4 20l-9 3q-9 3-32 3l-12 0q-45 0-57 55-6 33 14 64 2 4 2 9l0 7q10 2 18 20 8 0 36 4t42 5 35-5q8-6 16-10 14-10 23-14l31 21q-10 16-20 25-27 31-57 0l-68 6q-16-10-39-12-2 12-6 20-6 12-7 19t3 11l8 8q8 6 11 17t5 24 4 20q6 14 18 31 6 14 22 21t35 14 39 8 38 4q-37 31-76 53-12 0-32 5t-28 5q-21 2-49-14-21-16-51-16-37 0-74 13t-64 28q-64-21-117-64z" horiz-adv-x="1000" />
<glyph glyph-name="glasses" unicode="&#xe8e2;" d="M0 386q-2 14 8 25l359 186q29 12 41-16 12-33-14-45l-227-104 658 0-229 104q-25 16-14 45 14 27 43 16l361-186q12-12 10-25l-27-256q-8-29-33-29l-312 0q-25 2-31 25l-49 223q-39 25-92 2l-51-225q-6-25-31-25l-312 0q-27 2-31 29z m66-29l20-189 260 0 43 189-322 0z m543 0l41-189 260 0 20 189-320 0z" horiz-adv-x="999" />
<glyph glyph-name="glass" unicode="&#xe800;" d="M0 811l1000 0-420-420 0-412 156 0 0-90-471 0 0 90 154 0 0 412z" horiz-adv-x="1000" />
<glyph glyph-name="github-text" unicode="&#xe8fc;" d="M0-3q0 92 102 127l0 2q-37 21-37 70 0 61 35 76l0 2q-35 12-62 55-29 45-29 98 0 80 55 133 55 49 129 49 53 0 100-27 53 0 121 27l0-113q-16-6-43-12 8-25 8-47 0-70-42-122t-108-62q-45-8-45-47 0-16 16-29 18-21 55-25 156-25 156-131 0-170-203-170-84 0-137 29-68 37-68 117z m115 6q0-57 96-57 84 0 84 61 0 55-92 55-88 0-88-59z m12 424q0-76 68-76 66 0 66 76 0 33-16 55-18 25-51 25-68 0-68-80z m324 343q0 34 22 58t54 23 54-23 22-58-22-58-54-23-54 23-22 58z m14-653q4 21 4 74l0 342q0 51-4 70l125 0q-2-21-2-68l0-336q0-57 2-82l-125 0z m178 381l0 105 53 0 0 43q0 31-4 49l127 0q-2-21-2-47l0-45 94 0 0-105q-4 0-19 1t-28 1l-47 0 0-203q0-74 47-74 35 0 62 20l0-111q-41-21-98-21-80 0-111 57-21 43-21 135l0 199-16 0q-16 0-37-2z" horiz-adv-x="926" />
<glyph glyph-name="flag" unicode="&#xe83a;" d="M0-79l0 803q68 41 136 51t124-3 112-35 112-43 113-31 124 3 138 59l0-459q-53-53-109-67t-110 1-116 40-124 52-136 34-150-11l0-393-113 0z" horiz-adv-x="859" />
<glyph glyph-name="fire" unicode="&#xe8d0;" d="M7 237q10 41 50 132t44 145q39-72 45-145 148 184 154 428 10-6 25-17t58-46 74-73 61-97 34-117q16 35 20 78t-10 80q16-12 41-39t57-74 56-100 31-118-9-127-72-127-152-120q64 129 25 278t-154 229q10-43-11-142t-65-149q8 62 4 102t-12 59l-10 18q-12-70-61-141-25-37-38-68t-10-80 30-105q-135 76-181 154t-24 182z" horiz-adv-x="748" />
<glyph glyph-name="filter" unicode="&#xe8db;" d="M0 850l1000 0-346-346 0-402-309-252 0 654z" horiz-adv-x="1000" />
<glyph glyph-name="video-alt" unicode="&#xe812;" d="M0-150l0 1000 883 0 0-1000-883 0z m45 119l109 0 0 82-109 0 0-82z m0 184l109 0 0 84-109 0 0-84z m0 186l109 0 0 82-109 0 0-82z m0 186l109 0 0 82-109 0 0-82z m0 184l109 0 0 82-109 0 0-82z m156-826l480 0 0 436-480 0 0-436z m0 467l480 0 0 436-480 0 0-436z m527-379l109 0 0 82-109 0 0-82z m0 184l109 0 0 84-109 0 0-84z m0 186l109 0 0 82-109 0 0-82z m0 186l109 0 0 82-109 0 0-82z m0 184l109 0 0 82-109 0 0-82z" horiz-adv-x="883" />
<glyph glyph-name="mail-circled" unicode="&#xe805;" d="M0 350q0 207 146 353t353 146 353-146 146-353-146-353-353-146-353 146-146 353z m244-193l512 0-166 174-90-51-90 51z m0 59l131 137-131 74 0-211z m0 256l256-145 256 145 0 72-512 0 0-72z m381-119l131-137 0 211z" horiz-adv-x="1000" />
<glyph glyph-name="mail" unicode="&#xe804;" d="M0-29l324 342 176-100 176 100 324-342-1000 0z m0 113l0 414 254-146z m0 504l0 141 1000 0 0-141-500-285z m746-236l254 146 0-414z" horiz-adv-x="1000" />
<glyph glyph-name="eject" unicode="&#xe89d;" d="M0-96l0 258 1000 0 0-258-1000 0z m0 353l500 539 500-539-1000 0z" horiz-adv-x="1000" />
<glyph glyph-name="edit-alt" unicode="&#xe849;" d="M0-150l0 1000 646 0-164-164-318 0 0-672 672 0 0 318 164 164 0-646-1000 0z m363 363l0 117 6 0q39 2 72-29 39-39 39-88l-117 0z m51 176l367 367 125-125-367-367z m396 396l64 64 125-125-64-64z" horiz-adv-x="1000" />
<glyph glyph-name="cloud-circled" unicode="&#xe8b3;" d="M0 350q0 207 146 353t353 146 353-146 146-353-146-353-353-146-353 146-146 353z m159-34q-3-54 28-104l615 0q29 25 36 62t-7 69-45 54-68 18q-21 76-83 127t-132 49q-94-2-156-102-51 14-96-9t-67-66-25-98z" horiz-adv-x="1000" />
<glyph glyph-name="cloud" unicode="&#xe8b2;" d="M0 241q4 69 33 125t87 85 124 14q53 86 128 114t145 6 126-81 78-137q49 6 89-21t57-68 9-90-47-82l-791 0q-41 66-37 136z" horiz-adv-x="877" />
<glyph glyph-name="up-circled" unicode="&#xe88c;" d="M0 350q0 207 146 353t353 146 353-146 146-353-146-353-353-146-353 146-146 353z m248-55l135 0 0-268 234 0 0 268 135 0-252 377z" horiz-adv-x="1000" />
<glyph glyph-name="right-circled" unicode="&#xe88b;" d="M0 350q0 207 146 353t353 146 353-146 146-353-146-353-353-146-353 146-146 353z m178-117l268 0 0-135 377 252-377 252 0-135-268 0 0-234z" horiz-adv-x="1000" />
<glyph glyph-name="braille" unicode="&#xe8c8;" d="M0-26q0 52 36 88t87 36 88-36 37-88-37-88-88-36-87 36-36 88z m0 376q0 51 36 88t87 37 88-37 37-88-37-88-88-37-87 37-36 88z m0 376q0 52 36 88t87 36 88-36 37-88-37-88-88-36-87 36-36 88z m396-752q0 52 37 88t88 36 87-36 36-88-36-88-87-36-88 36-37 88z m0 376q0 51 37 88t88 37 87-37 36-88-36-88-87-37-88 37-37 88z m0 376q0 52 37 88t88 36 87-36 36-88-36-88-87-36-88 36-37 88z" horiz-adv-x="644" />
<glyph glyph-name="bookmark-empty" unicode="&#xe839;" d="M0-56l0 906 609 0 0-1000-305 305-305-305 0 94z m62 62l242 242 242-242 0 781-484 0 0-781z" horiz-adv-x="609" />
<glyph glyph-name="bookmark" unicode="&#xe838;" d="M0-56l0 906 609 0 0-1000-305 305-305-305 0 94z" horiz-adv-x="609" />
<glyph glyph-name="book" unicode="&#xe8c9;" d="M0 147l0 543q0 31 14 53 29 45 103 77t116 9l471-242 0-590-86-47 0 590-420 225q-29 10-65-9t-58-48l469-270 0-529-86-47z" horiz-adv-x="703" />
<glyph glyph-name="inbox-alt" unicode="&#xe8af;" d="M0 6l0 312 273 375 453 0 273-375 0-312-1000 0z m78 312l172 0 125-125 250 0 125 125 172 0-232 312-379 0z" horiz-adv-x="1000" />
<glyph glyph-name="inbox-circled" unicode="&#xe8ae;" d="M0 350q0 207 146 353t353 146 353-146 146-353-146-353-353-146-353 146-146 353z m199-281l602 0 0 289-197 0q0-41-30-71t-73-30-73 30-30 71l-197 0 0-289z m168 461l133-199 133 199-72 0 0 141-121 0 0-141-72 0z" horiz-adv-x="1000" />
<glyph glyph-name="inbox" unicode="&#xe8ad;" d="M0-150l0 482 328 0q0-72 51-122t121-50 121 50 51 122l328 0 0-482-1000 0z m279 768l119 0 0 232 203 0 0-232 119 0-221-332z" horiz-adv-x="1000" />
<glyph glyph-name="lightbulb-alt" unicode="&#xe877;" d="M0 350q0 207 146 353t353 146 353-146 146-353-146-353-353-146-353 146-146 353z m225-25q2-8 9-13t15-5l57 10q10 2 15 8t5 14q-2 8-10 14-4 2-12 2l-4 0-57-10q-8 0-14-6t-4-14z m1 171q-3-7 1-15t12-12l51-21q10-4 18-2t10 10q4 8 0 15t-12 11l-51 23q-4 2-10 2l-6 0q-10-4-13-11z m101 114q-2-8 4-16l31-47q4-8 13-11t15 3q6 4 7 12t-3 16l-31 49q-4 8-12 10l-6 0q-6 0-10-2-6-6-8-14z m45-291q16-33 29-59 10-21 14-37 2-8 5-23t7-25q2-6 10-8l129 0q6 2 10 8 4 10 7 28t5 21q4 16 14 37l29 59q37 82 10 143-12 23-31 40t-48 25-60 9l-2 0q-62 0-105-33-74-74-21-184z m53-271q0-10 10-10l133 0q10 0 10 10l0 23q0 10-10 10l-133 0q-10 0-10-10l0-23z m0 64q0-10 10-10l133 0q10 0 10 10l0 23q0 10-10 10l-133 0q-10 0-10-10l0-23z m59 473q0-8 5-15t14-7 14 7 5 15l0 57q0 10-5 16t-13 6l-2 0q-8 0-12-6-6-6-6-16l0-57z m122-33q1-8 7-12 6-6 15-3t13 11l31 47q10 18-4 29-4 2-10 2l-6 0q-8-2-12-10l-31-49q-4-8-3-16z m71-213q0-8 5-14t15-8l57-10q8 0 15 5t9 13-4 14-14 6l-57 10-6 0q-6 0-10-2-8-6-10-14z m8 117q2-8 10-10t18 2l51 21q8 4 12 12t1 15-13 11l-6 0q-6 0-10-2l-51-23q-8-4-12-11t0-15z" horiz-adv-x="1000" />
<glyph glyph-name="chart-circled" unicode="&#xe8d3;" d="M0 350q0 207 146 353t353 146 353-146 146-353-146-353-353-146-353 146-146 353z m209-221l582 0 0 441-582 0 0-441z m72 72l0 297 437 0 0-297-437 0z m16 94l37-43 51 43 31-33 25-27 20 31 55 82 35-74 23-49 27 47 102 176-49 27-76-129-33 72-23 47-27-43-61-96-25 27-20 18-20-16z" horiz-adv-x="1000" />
<glyph glyph-name="chart" unicode="&#xe8d2;" d="M0-29l0 758 1000 0 0-758-1000 0z m123 123l754 0 0 512-754 0 0-512z m27 162l125 104 35 29 31-33 43-47 105 166 47 72 39-78 61-125 127 223 86-49-176-305-45-80-41 84-62 131-92-143-33-53-43 45-55 57-90-74z" horiz-adv-x="1000" />
<glyph glyph-name="googleplus" unicode="&#xe8fd;" d="M0-150l0 125q51 59 143 76 82 12 105 12 18 0 35-2 14-12 62-45t72-55q55-47 55-96 0-10-2-16l-471 0z m0 207l0 254q90-66 203-51-27-68 2-115 14-21 29-43l-51 0q-131-4-184-45z m0 617l0 176 1000 0 0-271-184 0 0 186-80 0 0-186-186 0 0-76 186 0 0-187 80 0 0 187 184 0 0-652-443 0q20 72-6 131-25 57-84 107-27 23-102 82-39 27-39 62 2 31 41 72 57 43 82 82 35 53 35 125 0 66-31 119-20 31-57 66l88 0 82 66-307 0q-74-2-145-24t-115-65z m59-61q14 59 70 86 25 12 55 14 45 0 80-27 68-57 92-154 20-78 2-129-23-66-74-80-78-21-133 16-64 51-86 141-16 68-6 135z" horiz-adv-x="1000" />
<glyph glyph-name="globe-alt" unicode="&#xe8b1;" d="M0 350q0 207 146 353t353 146 353-146 146-353-146-353-353-146-353 146-146 353z m125 57q21-27 47-43t65-29 58-21q4-6 15-15t15-11q0-6-2-16-2-21 1-39t8-27 16-28 17-28q2-6 0-14-2-16-9-64t-7-76q39-23 76-25 4 8 8 18 4 8 9 21t13 28q0 14 5 25t11 18q6 8 14 14 20 16 35 31t18 25q8 31 10 68 0 12-9 20t-21 16q-18 8-46 34t-42 32q-18 8-34 9t-30-1q-14-4-33-2-4 6-8 8-8 4-2 10 4 8-3 11t-15 1q-8 23-8 37 14-12 23-18t18-8 14-2q10 4 12 20t-2 43q4 4 4 8 4 18 11 22t7 7q4 0 4 2 4 2 16 4 6 2 10 3t10 3q8 4 4 12l-2 0q18 10 35 41-12 20-35 31-8 10-20 6-6 0-15 6t-13 8-12 4q-14 8-26 21t-21 26q-4 10-18 14-10 2-20 2l-12 0q-55-43-93-104t-50-135z m256 297q25-14 61-25t68-12q23 0 51 16 27 20 76 10 8-2 14-2-35 16-74 23t-80 8q-61 0-115-18z m164-383q4-25 20-39 12-12 25-14t25 0 27-2q8-4 10-4-6-14-4-21 0-4 6-19t6-24q-4-49 0-61 6-12 14-33t14-33q4-8 14-10 20-4 47 23 20 23 23 51 2 10 8 21t10 25q2 6 0 14 14 21 14 39l0 14q2 4 10 11t12 11q6 23 2 31 0 2-4 4l-18 6q12 25 35 20l31 10 0 6q0 90-36 163t-99 126q-102-12-127-45-12-20-16-33-2-8-5-21t-4-17-5-12-12-18q-4-4-4-11t6-19q6-10 6-18 29 0 37 10l70-6q25 31 57 0 8-8 18-25l-29-20q-20 10-33 16t-28 8-22 1-30-4-36-3l-4-8t-6-7-8-3q-2-4-2-10l0-8q-21-27-14-64z" horiz-adv-x="1000" />
<glyph glyph-name="folder-close" unicode="&#xe85f;" d="M0-52l0 561 1000 0 0-561-1000 0z m0 594l0 121 139 0 68 90 217 0 68-90 508 0 0-121-1000 0z" horiz-adv-x="1000" />
<glyph glyph-name="folder" unicode="&#xe85d;" d="M0-52l0 715 139 0 68 90 217 0 68-90 508 0 0-715-1000 0z" horiz-adv-x="1000" />
<glyph glyph-name="flickr" unicode="&#xe8f7;" d="M0-150l0 1000 1000 0 0-1000-1000 0z m107 500q0-78 55-134t133-56 134 56 56 134-56 133-134 55-133-55-55-133z m408 0q0-78 56-134t134-56 133 56 55 134-55 133-133 55-134-55-56-133z" horiz-adv-x="1000" />
<glyph glyph-name="flag-circled" unicode="&#xe83b;" d="M0 350q0 207 146 353t353 146 353-146 146-353-146-353-353-146-353 146-146 353z m217-281l76 0 0 258q64 18 117 5t104-33 94-39 88-12 87 46l0 303q-62-39-124-42t-106 17-104 40-106 21q-62 2-125-35l0-527z" horiz-adv-x="1000" />
<glyph glyph-name="eye-off" unicode="&#xe835;" d="M0 326q6 49 64 109 78 80 176 129 129 61 260 61 29 0 59-2l74 129q10 16 23 18 4 0 8-2l51-31q18-8 2-33l-57-102-47-78-41-72-145-250-41-72-47-80-57-100q-16-25-31-16l-53 31q-16 8 0 33l49 86-8 4q-104 53-176 129-64 72-64 109z m264 0q0-74 47-133l49 84q-10 23-10 49 0 51 34 91t85 50l49 84-18 0q-98 0-167-65t-69-159z m178-295l41 70 18 0q98 0 167 65t69 159q0 74-47 133l62 109q2-2 4-3t4-1q104-53 176-129 64-72 64-109-6-49-64-109-78-80-176-129-129-61-260-61-25 0-59 4z m90 154l109 189q10-25 10-49 0-51-34-90t-85-51z" horiz-adv-x="1000" />
<glyph glyph-name="exclamation" unicode="&#xe850;" d="M0 350q0 207 146 353t353 146 353-146 146-353-146-353-353-146-353 146-146 353z m318 402l78-551 207 0 78 551-363 0z m76-696q0-44 31-76t76-32 76 32 31 76-31 76-76 32-76-32-31-76z" horiz-adv-x="1000" />
<glyph glyph-name="error-alt" unicode="&#xe852;" d="M0 350q0 207 146 353t353 146 353-146 146-353-146-353-353-146-353 146-146 353z m164-133l672 0 0 266-672 0 0-266z" horiz-adv-x="1000" />
<glyph glyph-name="error" unicode="&#xe851;" d="M0 350q0 207 146 353t353 146 353-146 146-353-146-353-353-146-353 146-146 353z m137 0q0-150 106-257t257-106 257 106 106 257-106 257-257 106-257-106-106-257z m98-98l0 195 531 0 0-195-531 0z" horiz-adv-x="1000" />
<glyph glyph-name="comment" unicode="&#xe84c;" d="M0 96l0 713 1000 0 0-713-473 0-320-205 0 205-207 0z" horiz-adv-x="1000" />
<glyph glyph-name="cogs" unicode="&#xe866;" d="M0 245l0 98 94 8q8 29 23 55l-61 74 68 68 74-61q25 16 55 23l8 94 98 0 10-94q29-8 55-23l74 61 68-68-61-74q16-25 23-55l94-8 0-98-94-10q-8-29-23-55l61-72-68-70-74 61q-25-16-55-23l-10-94-98 0-8 94q-29 8-55 23l-74-61-68 70 61 72q-16 25-23 55z m221 49q0-37 26-63t63-26 63 26 26 63-26 63-63 26-63-26-26-63z m318 238l8 72 70-2q8 21 20 39l-37 57 55 45 49-49q20 10 41 14l14 66 72-8-2-68q21-8 39-21l57 39 45-55-49-49q10-20 12-43l68-14-8-70-68 0q-8-20-21-37l39-59-57-45-47 49q-21-8-43-12l-14-66-70 6 0 70q-20 8-37 20l-59-37-45 55 49 49q-8 20-12 41z m31-445l6 51 49 0q6 16 14 27l-25 43 37 33 35-37q14 8 29 10l10 49 49-6 0-49q16-6 27-16l41 27 31-41-35-35q6-14 10-29l47-12-6-51-49 0q-4-16-14-27l27-43-39-33-35 37q-14-8-29-10l-10-49-49 6 0 51q-14 4-27 14l-41-27-31 41 35 35q-6 14-8 29z m117 14q-4-21 9-36t31-18 34 10 18 33-11 35-30 19l-6 0q-18 0-31-13t-14-30z m18 451q-4-27 14-49t45-24 48 15 23 45-14 48-44 24l-8 0q-25 0-44-17t-21-42z" horiz-adv-x="1000" />
<glyph glyph-name="cog-circled" unicode="&#xe865;" d="M0 350q0 207 146 353t353 146 353-146 146-353-146-353-353-146-353 146-146 353z m195-47l92-10q8-29 21-53l-59-72 68-68 72 59q23-14 53-21l10-92 94 0 10 92q29 8 53 21l72-59 68 68-59 72q14 23 21 53l92 10 0 94-92 10q-8 29-21 53l59 72-68 68-72-59q-23 14-53 21l-10 92-94 0-10-92q-29-8-53-21l-72 59-68-68 59-72q-14-23-21-53l-92-10 0-94z m217 47q0 37 25 62t62 25 62-25 25-62-25-62-62-25-62 25-25 62z" horiz-adv-x="1000" />
<glyph glyph-name="cog" unicode="&#xe864;" d="M0 272l0 156 150 16q14 45 37 88l-96 117 109 109 117-96q41 23 88 37l16 150 156 0 16-150q45-14 88-37l117 96 109-109-96-117q23-43 37-88l150-16 0-156-150-16q-14-47-37-88l96-117-109-109-117 96q-43-23-88-37l-16-150-156 0-16 150q-47 14-88 37l-117-96-109 109 96 117q-23 41-37 88z m355 78q0-61 42-103t103-42 103 42 42 103-42 103-103 42-103-42-42-103z" horiz-adv-x="1000" />
<glyph glyph-name="calendar-circled" unicode="&#xe86c;" d="M0 350q0 207 146 353t353 146 353-146 146-353-146-353-353-146-353 146-146 353z m219-314l562 0 0 408-562 0 0-408z m0 443l562 0 0 139-68 0 0-88-127 0 0 88-172 0 0-88-127 0 0 88-68 0 0-139z m105 88l53 0 0 98-53 0 0-98z m37-391l47 0q2-35 29-35 33 2 33 39 0 23-16 29-12 6-43 6l0 35q53-2 53 29 0 33-27 33-31-2-31-29l-45 0q2 31 24 48t54 17q51 0 66-39 10-27 2-45-10-21-39-31 49-14 49-57-2-31-25-51t-53-20q-78 0-78 70z m178 92l0 39q35 16 59 37l41 0 0-234-45 0 0 189q-23-21-55-31z m84 299l53 0 0 98-53 0 0-98z" horiz-adv-x="1000" />
<glyph glyph-name="calendar" unicode="&#xe86b;" d="M0-150l0 648 893 0 0-648-893 0z m0 705l0 221 109 0 0-141 199 0 0 141 275 0 0-141 199 0 0 141 109 0 0-221-893 0z m168 139l0 156 82 0 0-156-82 0z m59-619q0-111 123-111 47 0 84 31 39 31 39 80 0 68-78 90 49 16 64 49 12 27-2 72-27 62-107 62-51 0-86-26t-37-77l72 0q0 45 49 47 43 0 45-53 0-49-84-47l0-57q49 0 68-8 23-12 23-47 0-57-55-61-43 0-47 55l-72 0z m281 146q49 14 88 47l0-297 70 0 0 371-64 0q-37-37-94-59l0-62z m135 473l0 156 82 0 0-156-82 0z" horiz-adv-x="893" />
<glyph glyph-name="megaphone" unicode="&#xe8d5;" d="M0 344l0 123q2 35 26 60t58 24l270 0q139 8 272 64t229 152q35-2 59-26t23-58l0-199q27-8 45-30t18-50q-2-29-19-51t-44-27l0-201q-2-35-26-59t-56-23q-207 184-449 211-66-33-54-127t77-143q-27-47-96-52t-105 30q-16 45-24 75t-17 71-7 78 11 72l-107 0q-35 2-60 26t-24 58z m437-10q240-45 420-184l0 508q-203-150-420-182l0-143z" horiz-adv-x="1000" />
<glyph glyph-name="briefcase" unicode="&#xe8c3;" d="M0-89l0 254 451 0 0-80 98 0 0 80 451 0 0-254-1000 0z m0 332l0 406 266 0 0 141 469 0 0-141 266 0 0-406-451 0 0 84-98 0 0-84-451 0z m338 406l324 0 0 68-324 0 0-68z" horiz-adv-x="1000" />
<glyph glyph-name="vkontakte" unicode="&#xe90b;" d="M0-150l0 1000 1000 0 0-1000-1000 0z m98 701q2-27 20-66 47-100 143-236 35-39 54-57t50-39 69-28 89-5q16 2 22 3t17 9 12 23l4 51q6 21 26 20t28-16q14-23 53-59t66-33l129 6q18 0 22 17t-9 38q-29 43-104 111-35 33 14 88 35 39 73 98t24 76q-8 8-12 9t-25 1l-121 0q-20 0-24-3t-13-21l-3-6t-12-24-14-30-14-27-18-29-17-23-21-22-21-15q-10 4-16 20t-6 38 1 43 3 43 2 28q0 47-59 47-2 0-27 2t-43 2q-70 0-82-31 51-16 49-76 0-96-4-96-10-39-41-10-47 61-96 170-12 23-31 21-8 0-49 1t-62-1-29-10z" horiz-adv-x="1000" />
</font>
</defs>
</svg>
